Ссылка на приватное зеркало нашего сайта всего за 1$. Внимание количество ограничено!!!

2 сезон

iTunes

1 сезон

1

iTunes

iTunes

iTunes

1 сезон

RePack

30

ИГРА 18+

pack

ВАЖНО

!!Акция!!

Alien_RageХит недели

RePack

MK11
pack

Забери бонус

RePack

jed

!!Акция!!

Alien_Rage

RePack

fifa19

RePack

Assassins Creed: Odyssey

RePack

NEED FOR SPEED™ PAYBACK

4 сезон

9 сезон

Бесстыжие 9 сезон

Все сериалы

все сериалы на PB.wtf

RePack

FAR CRY 5
  

Виктор / Viktor (Филиппе Мартинес) [2014, боевик, триллер, драма, BDRip 720p от potroks] DUB Лицензия pb.wtf

Виктор через торрент pb.wtf

Размер: 3.37 GB | Добавлен: 5 лет назад | Торрент скачан:84 раза
Скачать  

18-10-2015 12:02 Виктор Скачать торрент  

Виктор / Viktor
«Отец... он готов на всё»
Год выпуска: 2014
Страна: Франция, Россия / B-Tween, Baboushka Film, Kapara Pictures
Жанр: боевик, триллер, драма, криминал
Продолжительность: 01:33:49
Перевод: Дубляж [BD RUS]
Навигация по главам: есть
Режиссер: Филиппе Мартинес / Philippe Martinez
В ролях:

Жерар Депардье (Виктор Ламберт), Элизабет Хёрли (Александра Иванова), Эли Данкер (Souliman), Денис Карасев (Антон Белинский), Марчелло Маццарелла (Martelli), Евгения Ахременко (Плутова), Полина Кузьминская (Катерина), Марика Гвилава (Татьяна), Алексей Петренко (Ветров), Жан Баптисте Фильон (Jeremy), Магомед Умаров (Василий), Борис Шевченко (Дмитрий)
Описание: В центре сюжета история бывшего гангстера Виктора Ламбера, специализировавшегося на похищении произведений искусства. Когда-то он жил в России и с тех пор любит эту страну, а также свою бывшую сообщницу Александру Иванову. Проведя пятнадцать лет за решеткой во Франции, Виктор Ламбер возвращается в Москву, чтобы отомстить за смерть своего сына, убитого контрабандистами бриллиантов. Верная подруга Александра помогает ему в этом деле.

Качество: BDRip 720p
Формат: MKV
Видео кодек: AVC
Аудио кодек: AC3
Видео: AVC, 1280x570 (2.25:1), 4504 kbps, 25 fps, 0,247 bit/pixel
Аудио: AC3 / 5.1 / 48 kHz / 640 kbps / 16 bit

Релиз группы:
Автор рипа: potroks

Код:

General
Unique ID                                : 251207322585342993964088541108945628146 (0xBCFCC53E48FE0A9F8F013BBFFFE92BF2)
Complete name                            : Viktor.2014.RUD.BDRip.720p.-HELLYWOOD.mkv
Format                                   : Matroska
Format version                           : Version 4 / Version 2
File size                                : 3.37 GiB
Duration                                 : 1h 33mn
Overall bit rate                         : 5 145 Kbps
Movie name                               : Viktor (2014) - HELLYWOOD
Encoded date                             : UTC 2010-02-22 21:41:31
Writing application                      : mkvmerge v5.8.0 ('No Sleep / Pillow') built on Sep 30 2012 10:57:14
Writing library                          : libebml v1.3.0 + libmatroska v1.4.0

Video
ID                                       : 1
Format                                   : AVC
Format/Info                              : Advanced Video Codec
Format profile                           : High@L4.1
Format settings, CABAC                   : Yes
Format settings, ReFrames                : 9 frames
Codec ID                                 : V_MPEG4/ISO/AVC
Duration                                 : 1h 33mn
Bit rate                                 : 4 504 Kbps
Width                                    : 1 280 pixels
Height                                   : 570 pixels
Display aspect ratio                     : 2.25:1
Frame rate                               : 25.000 fps
Color space                              : YUV
Chroma subsampling                       : 4:2:0
Bit depth                                : 8 bits
Scan type                                : Progressive
Bits/(Pixel*Frame)                       : 0.247
Stream size                              : 2.89 GiB (86%)
Title                                    : potroks
Writing library                          : x264 core 146 r2538 121396c
Encoding settings                        : cabac=1 / ref=9 / deblock=1:-3:-3 / analyse=0x3:0x113 / me=umh / subme=11 / psy=1 / psy_rd=1.00:0.05 / mixed_ref=1 / me_range=48 / chroma_me=1 / trellis=2 / 8x8dct=1 / cqm=0 / deadzone=21,11 / fast_pskip=0 / chroma_qp_offset=-3 / threads=9 / lookahead_threads=2 / sliced_threads=0 / nr=0 / decimate=0 / interlaced=0 / bluray_compat=0 / constrained_intra=0 / bframes=10 / b_pyramid=2 / b_adapt=2 / b_bias=0 / direct=3 / weightb=1 / open_gop=0 / weightp=2 / keyint=250 / keyint_min=23 / scenecut=40 / intra_refresh=0 / rc_lookahead=60 / rc=2pass / mbtree=0 / bitrate=4504 / ratetol=1.0 / qcomp=0.70 / qpmin=0 / qpmax=69 / qpstep=4 / cplxblur=20.0 / qblur=0.5 / vbv_maxrate=14000 / vbv_bufsize=14000 / nal_hrd=none / filler=0 / ip_ratio=1.40 / pb_ratio=1.30 / aq=1:0.80
Language                                 : English
Default                                  : Yes
Forced                                   : No

Audio
ID                                       : 2
Format                                   : AC-3
Format/Info                              : Audio Coding 3
Mode extension                           : CM (complete main)
Codec ID                                 : A_AC3
Duration                                 : 1h 33mn
Bit rate mode                            : Constant
Bit rate                                 : 640 Kbps
Channel(s)                               : 6 channels
Channel positions                        : Front: L C R, Side: L R, LFE
Sampling rate                            : 48.0 KHz
Bit depth                                : 16 bits
Compression mode                         : Lossy
Stream size                              : 430 MiB (12%)
Title                                    : Dub | DD 5.1 @ 640 kbps - Blu-Ray RUS
Language                                 : Russian
Default                                  : Yes
Forced                                   : No

Menu
00:00:00.000                             : en:(01)00:00:00:000
00:08:35.040                             : en:(02)00:08:35:040
00:16:44.000                             : en:(03)00:16:44:000
00:24:02.680                             : en:(04)00:24:02:680
00:31:32.040                             : en:(05)00:31:32:040
00:40:16.120                             : en:(06)00:40:16:120
00:45:00.760                             : en:(07)00:45:00:760
00:51:17.360                             : en:(08)00:51:17:360
00:59:25.400                             : en:(09)00:59:25:400
01:09:27.800                             : en:(10)01:09:27:800
01:19:24.280                             : en:(11)01:19:24:280
01:27:29.000                             : en:(12)01:27:29:000

pb.wtf



Скачать Виктор через торрент http://i60.fastpic.ru/big/2015/1018/da/f855af697c860e4686a081519bb62fda.png Скачать фильм Виктор через торрент бесплантно в хорошем качестве Описание: В центре сюжета история бывшего гангстера Виктора Ламбера, специализировавшегося на похищении произведений искусства. Когда-то ... 6.6 10 8
Торрент: Зарегистрирован [2015-10-18 12:02] · скачан: 84 раз
Статус: √ проверено
Размер: 3.37 GB
Как cкачать? Как скачать Виктор через торрент | qTorrent

% Раздел Тема Автор DL S | L
Ultra HD (UHD: 2K, 4K, 8K) — видео сверхвысокой чёткости [ 24.05 GB ] Виктор Франкенштейн / Victor Frankenstein [2015 UHD WEBRip 2160p] DUB [] sheker187 Скачать
1 | 0
Фильмы 2017 [DVDrip, WEB-DLRip, HDrip] (DUB, MVO) [ 2.22 GB ] Виктория и Абдул / Victoria & Abdul / Victoria and Abdul [2017 биография история BDRip-AVC] sokol_ok Скачать
1 | 0
Фильмы 2017 [DVDrip, WEB-DLRip, HDrip] (DUB, MVO) [ 746 MB ] Виктория и Абдул / Victoria & Abdul / Victoria and Abdul [2017 биография история BDRip-AVC] sokol_ok Скачать
2 | 0
Фильмы 2017 [DVDrip, WEB-DLRip, HDrip] (DUB, MVO) [ 1.46 GB ] Виктория и Абдул / Victoria & Abdul / Victoria and Abdul [2017 биография история BDRip-AVC] sokol_ok Скачать
2 | 0
Фильмы [HD 720p, 1080p] (Хороший звук DUB, MVO) [ 12.59 GB ] Виктория и Абдул / Victoria and Abdul [2017 биография история BDRip 1080p] DUB [ Blu-ray EUR] bober100 Скачать
1 | 0
Фильмы 2017 [DVDrip, WEB-DLRip, HDrip] (DUB, MVO) [ 1.46 GB ] Виктория и Абдул / Victoria and Abdul [2017 биография история BDRip] DUB [] bober100 Скачать
1 | 0
Фильмы [HD 720p, 1080p] (Хороший звук DUB, MVO) [ 5.26 GB ] Виктория и Абдул / Victoria and Abdul [2017 биография история BDRip 720p] DUB [] bober100 Скачать
1 | 0

28-11-2019 20:33  

Отключить всю рекламу на сайте

    Дорогой пользователь! Огромная просьба, поблагодарите релизера, оцените раздачу и оставьте свои комментарий, если Вы скачали Виктор через торрент бесплатно! Внесите свою лепту в развитие PiratBit!
    Комментировать посты могут только пользователи прошедшие не сложную регистрацию
    Показать сообщения:    

    Виктор через торрент
    Скачать бесплатно Виктор
    Виктор скачать торрент
    Виктор смотреть онлайн
    Cкачать фильм Виктор бесплатно
    Виктор скачать торрент в хорошем качестве
    Виктор смотреть онлайн бесплатно в хорошем качестве


    Вы не можете начинать темы
    Вы не можете отвечать на сообщения
    Вы не можете редактировать свои сообщения
    Вы не можете удалять свои сообщения
    Вы не можете голосовать в опросах
    Вы не можете прикреплять файлы к сообщениям
    Вы можете скачивать файлы