2 сезон

iTunes

MVO

1

2 сезон

iTunes

iTunes

1 сезон

RePack

30

Новинка

ВАЖНО

ИГРА 18+

pack

RePack

MK11
pack

Легкие деньги

RePack

jed

RePack

fifa19

RePack

RDR2

RePack

NEED FOR SPEED™ PAYBACK

4 сезон

9 сезон

Бесстыжие 9 сезон

Все сериалы

все сериалы на PB.wtf

RePack

FAR CRY 5

Anonymous, добрый день, мы не успеваем собрать деньги на оплату серверов за декабрь и январь, помогите нам пожалуйста в это трудное время. В качестве благодарности мы отключим Вам всю рекламу на сайте (укажите свой ник в строку Ваше имя)!

×
  
Magnet ссылка

BBC: Марк Цукерберг: Фейсбук изнутри / Mark Zuckerberg: Inside Facebook (Чарльз Миллер) [2011 г., документальный, SATRip, Профессиональный (двухголосый)] pb.wtf

BBC: Марк Цукерберг: Фейсбук изнутри через торрент pb.wtf

Размер: 438 MB | Добавлен: 5 лет 2 мес. назад | Торрент скачан:14 раз
Скачать  

18-10-2015 13:20 BBC: Марк Цукерберг: Фейсбук изнутри Скачать торрент  

BBC: Марк Цукерберг: Фейсбук изнутри / Mark Zuckerberg: Inside Facebook
Год выпуска: 2011
Страна: Великобритания
Жанр: документальный
Продолжительность: ~ 00:48:07
Перевод: Профессиональный (двухголосый)
Субтитры: отсутствуют

Режиссер: Чарльз Миллер

Премьера в мире: 26 января 2011



В ролях: Эмили Маитлис, Марк Цукерберг

Описание: Путь Марка Цуккерберга от студента, изучавшего психологию и информатику в Гарварде, до основателя одной из самых влиятельных компаний в мире. В фильме использованы интервью с самим Цуккербергом и топ-менеджерами facebook. Фильм рассказывает, как facebook может использоваться как гигантская база для рыночных исследований и как эта сеть влияет на наши отношения в реальном мире.

Качество: SATRip
Формат: AVI
Видео кодек: XviD
Аудио кодек: MP3
Видео: XviD, ~1136 kb/s, 704 x 400
Аудио#1: MP3, 2.0ch., 128 kb/s
Общее
Полное имя : D:\download\BBC Марк Цукерберг. Фейсбук изнутри.avi
Формат : AVI
Формат/Информация : Audio Video Interleave
Размер файла : 438 Мбайт
Продолжительность : 48 м.
Общий поток : 1274 Кбит/сек
Программа кодирования : VirtualDubMod 1.5.10.3 | www.virtualdub-fr.org || (build 2550/release)
Библиотека кодирования : VirtualDubMod build 2550/release

Видео
Идентификатор : 0
Формат : MPEG-4 Visual
Профиль формата : Advanced Simple@L5
Параметр BVOP формата : 2
Параметр QPel формата : Нет
Параметр GMC формата : Без точки перехода
Параметр матрицы формата : Выборочная
Идентификатор кодека : XVID
Идентификатор кодека/Подсказка : XviD
Продолжительность : 48 м.
Битрейт : 1136 Кбит/сек
Ширина : 704 пикселя
Высота : 400 пикселей
Соотношение сторон : 16:9
Частота кадров : 25,000 кадров/сек
Цветовое пространство : YUV
Субдискретизация насыщенности : 4:2:0
Битовая глубина : 8 бит
Тип развёртки : Прогрессивная
Метод сжатия : С потерями
Бит/(Пиксели*Кадры) : 0.161
Размер потока : 391 Мбайт (89%)
Библиотека кодирования : XviD 73

Аудио
Идентификатор : 1
Формат : MPEG Audio
Версия формата : Version 1
Профиль формата : Layer 3
Идентификатор кодека : 55
Идентификатор кодека/Подсказка : MP3
Продолжительность : 48 м.
Вид битрейта : Постоянный
Битрейт : 128 Кбит/сек
Каналы : 2 канала
Частота : 48,0 КГц
Метод сжатия : С потерями
Размер потока : 44,1 Мбайт (10%)
Выравнивание : Соединение по промежуткам
Продолжительность промежутка : 40 мс. (1,00 видеокадр)
Время предзагрузки промежутка : 504 мс.
Библиотека кодирования : LAME3.99r
Настройки программы : -m s -V 4 -q 0 -lowpass 17 -b 128
скриншот   скриншот   скриншот  
pb.wtf



Скачать BBC: Марк Цукерберг: Фейсбук изнутри через торрент http://pic.kartinco.top/images/11/kpxpo.jpg Скачать фильм BBC: Марк Цукерберг: Фейсбук изнутри через торрент бесплантно в хорошем качестве Описание: Путь Марка Цуккерберга от студента, изучавшего психологию и информатику в Гарварде, до основателя одной из самых влиятельных ... 10 10 4
Торрент: Зарегистрирован [2015-10-18 13:20] · скачан: 14 раз
Статус: √ проверено
Размер: 438 MB
Как cкачать? Как скачать BBC: Марк Цукерберг: Фейсбук изнутри через торрент | UTorrent

28-11-2019 20:33  

Отключить всю рекламу на сайте


    Дорогой пользователь! Огромная просьба, поблагодарите релизера, оцените раздачу и оставьте свои комментарий, если Вы скачали BBC: Марк Цукерберг: Фейсбук изнутри через торрент бесплатно! Внесите свою лепту в развитие PiratBit!
    Комментировать посты могут только пользователи прошедшие не сложную регистрацию
    Показать сообщения:    

    BBC: Марк Цукерберг: Фейсбук изнутри через торрент
    Скачать бесплатно BBC: Марк Цукерберг: Фейсбук изнутри
    BBC: Марк Цукерберг: Фейсбук изнутри скачать торрент
    BBC: Марк Цукерберг: Фейсбук изнутри смотреть онлайн
    Cкачать фильм BBC: Марк Цукерберг: Фейсбук изнутри бесплатно
    BBC: Марк Цукерберг: Фейсбук изнутри скачать торрент в хорошем качестве
    BBC: Марк Цукерберг: Фейсбук изнутри смотреть онлайн бесплатно в хорошем качестве


    Вы не можете начинать темы
    Вы не можете отвечать на сообщения
    Вы не можете редактировать свои сообщения
    Вы не можете удалять свои сообщения
    Вы не можете голосовать в опросах
    Вы не можете прикреплять файлы к сообщениям
    Вы можете скачивать файлы