Ссылка на приватное зеркало всего за 1$. Внимание количество ограничено!!!

OK

1+1

iTunes

мы

OK

1

WEB-DLRip

Джокер

Пифагор

Ведьмак / The Witcher сериал

Лицензия

ПШазам

ОК

Оно 2

iTunes

30
pack

Вам бонус

ВАЖНО

!!Акция!!

Alien_RageХит недели

RePack

Resident Evil 21

ИГРА 18+

pack

RePack

jed

!!Акция!!

Alien_Rage

RePack

fifa19

RePack

Assassins Creed: Odyssey

RePack

NEED FOR SPEED™ PAYBACK

4 сезон

9 сезон

Бесстыжие 9 сезон

Все сериалы

все сериалы на PB.wtf

RePack

FAR CRY 5
  

Красотки в бегах / Hot Pursuit (Энн Флетчер / Anne Fletcher) [2015, боевик, комедия, криминал, BDRip-AVC от potroks] DUB Лицензия pb.wtf

Красотки в бегах через торрент pb.wtf

Размер: 2.18 GB | Добавлен: 4 года 3 мес. назад | Торрент скачан:194 раза
Скачать  

11-09-2015 04:33 Красотки в бегах Скачать торрент  

Красотки в бегах / Hot Pursuit
«Вооружены и типа опасны»
Год выпуска: 2015
Страна: США / Warner Bros. Pictures, New Line Cinema, Metro-Goldwyn-Mayer (MGM)
Жанр: боевик, комедия, криминал
Продолжительность: 01:27:31
Перевод: Дубляж [BD CEE]
Субтитры: русские (полные + форс.), украинские (полные + форс.), английские (Full + SDH + SDH-Colored)
Навигация по главам: есть
Режиссер: Энн Флетчер / Anne Fletcher
В ролях:

Риз Уизерспун (Cooper), София Вергара (Daniella Riva), Мэттью Дель Негро (Detective Hauser), Майкл Мосли (Detective Dixon), Роберт Казински (Randy), Ричард Т. Джонс (Detective Jackson), Бенни Нивз (Jesus), Майкл Рэй Эскамиллья (Angel), Хоакин Косио (Vicente Cortez), Джон Кэрролл Линч (Captain Emmett), Джим Гэффиган (Red), Майк Бирбиглия (Steve)
Описание: Сверхдобросовестный офицер полиции Купер гордится своим назначением на, казалось бы, простое задание - сопроводить жену мафиози, Даниэллу, через весь Техас в Даллас, где она и ее муж должны дать показания против крупного наркобарона. Однако при встрече с порывистой миссис Рива - колумбийской красоткой с пышными формами, чье упрямство столь же выразительно, как и ее акцент, - ей становится ясно, что поездка будет не простой.

Качество: BDRip-AVC
Формат: MKV
Видео кодек: AVC
Аудио кодек: AC3
Видео: AVC, 1152x480 (2.40:1), 2671 kbps, 23,976 fps, 0.201 bit/pixel
Аудио №1: AC3 / 5.1 / 48 kHz / 448 kbps / 16 bit | RUS
Аудио №2: AC3 / 5.1 / 48 kHz / 448 kbps / 16 bit | ENG
Релиз группы:
Автор рипа: potroks

Код:

Общее
Уникальный идентификатор : 225529659920989886801177921884553658175 (0xA9AB6EBADF106DFD95D21997A13ABF3F)
Полное имя : N:\Боевик\Krasotki.v.Begah.2015.DUAL.BDRip.x264.-HELLYWOOD.mkv
Формат : Matroska
Версия формата : Version 4 / Version 2
Размер файла : 2,18 Гбайт
Продолжительность : 1 ч. 27 м.
Общий поток : 3569 Кбит/сек
Название фильма : Hot Pursuit (2015) - HELLYWOOD
Дата кодирования : UTC 2015-09-11 04:02:05
Программа кодирования : mkvmerge v5.9.0 ('On The Loose') built on Dec 15 2012 16:39:58
Библиотека кодирования : libebml v1.3.0 + libmatroska v1.4.0

Видео
Идентификатор : 1
Формат : AVC
Формат/Информация : Advanced Video Codec
Профиль формата : High@L4.1
Параметр CABAC формата : Да
Параметр ReFrames формата : 5 кадров
Идентификатор кодека : V_MPEG4/ISO/AVC
Продолжительность : 1 ч. 27 м.
Битрейт : 2671 Кбит/сек
Ширина : 1152 пикселя
Высота : 480 пикселей
Соотношение сторон : 2,40:1
Режим частоты кадров : Постоянный
Частота кадров : 23,976 кадра/сек
Цветовое пространство : YUV
Субдискретизация насыщенности : 4:2:0
Битовая глубина : 8 бит
Тип развёртки : Прогрессивная
Бит/(Пиксели*Кадры) : 0.201
Размер потока : 1,59 Гбайт (73%)
Заголовок : potroks
Библиотека кодирования : x264 core 148 r2597M e86f3a1
Настройки программы : cabac=1 / ref=6 / deblock=1:-2:-2 / analyse=0x3:0x133 / me=umh / subme=11 / psy=1 / psy_rd=1.00:0.00 / mixed_ref=1 / me_range=56 / chroma_me=1 / trellis=2 / 8x8dct=1 / cqm=0 / deadzone=21,11 / fast_pskip=0 / chroma_qp_offset=-2 / threads=10 / lookahead_threads=1 / sliced_threads=0 / nr=0 / decimate=1 / interlaced=0 / bluray_compat=1 / constrained_intra=0 / bframes=3 / b_pyramid=1 / b_adapt=2 / b_bias=0 / direct=3 / weightb=1 / open_gop=0 / weightp=1 / keyint=250 / keyint_min=1 / scenecut=40 / intra_refresh=0 / rc=2pass / mbtree=0 / bitrate=2671 / ratetol=1.0 / qcomp=0.70 / qpmin=0 / qpmax=69 / qpstep=4 / cplxblur=20.0 / qblur=0.5 / ip_ratio=1.40 / pb_ratio=1.30 / aq=1:0.80
Язык : English
Default : Да
Forced : Нет

Аудио #1
Идентификатор : 2
Формат : AC-3
Формат/Информация : Audio Coding 3
Расширение режима : CM (complete main)
Параметр Endianness формата : Big
Идентификатор кодека : A_AC3
Продолжительность : 1 ч. 27 м.
Вид битрейта : Постоянный
Битрейт : 448 Кбит/сек
Каналы : 6 каналов
Расположение каналов : Front: L C R, Side: L R, LFE
Частота : 48,0 КГц
Метод сжатия : С потерями
Размер потока : 280 Мбайт (13%)
Заголовок : Dub | DD 5.1 @ 448 kbps - Blu-Ray CEE
Язык : Russian
Default : Да
Forced : Нет

Аудио #2
Идентификатор : 3
Формат : AC-3
Формат/Информация : Audio Coding 3
Расширение режима : CM (complete main)
Параметр Endianness формата : Big
Идентификатор кодека : A_AC3
Продолжительность : 1 ч. 27 м.
Вид битрейта : Постоянный
Битрейт : 448 Кбит/сек
Каналы : 6 каналов
Расположение каналов : Front: L C R, Side: L R, LFE
Частота : 48,0 КГц
Метод сжатия : С потерями
Размер потока : 280 Мбайт (13%)
Заголовок : Original | DD 5.1 @ 448 kbps
Язык : English
Default : Нет
Forced : Нет

Текст #1
Идентификатор : 4
Формат : UTF-8
Идентификатор кодека : S_TEXT/UTF8
Идентификатор кодека/Информация : UTF-8 Plain Text
Заголовок : Forced
Язык : Russian
Default : Да
Forced : Нет

Текст #2
Идентификатор : 5
Формат : UTF-8
Идентификатор кодека : S_TEXT/UTF8
Идентификатор кодека/Информация : UTF-8 Plain Text
Заголовок : Blu-Ray
Язык : Russian
Default : Нет
Forced : Нет

Текст #3
Идентификатор : 6
Формат : UTF-8
Идентификатор кодека : S_TEXT/UTF8
Идентификатор кодека/Информация : UTF-8 Plain Text
Заголовок : Forced
Язык : Ukrainian
Default : Нет
Forced : Нет

Текст #4
Идентификатор : 7
Формат : UTF-8
Идентификатор кодека : S_TEXT/UTF8
Идентификатор кодека/Информация : UTF-8 Plain Text
Заголовок : Blu-Ray
Язык : Ukrainian
Default : Нет
Forced : Нет

Текст #5
Идентификатор : 8
Формат : UTF-8
Идентификатор кодека : S_TEXT/UTF8
Идентификатор кодека/Информация : UTF-8 Plain Text
Заголовок : Full
Язык : English
Default : Нет
Forced : Нет

Текст #6
Идентификатор : 9
Формат : UTF-8
Идентификатор кодека : S_TEXT/UTF8
Идентификатор кодека/Информация : UTF-8 Plain Text
Заголовок : SDH
Язык : English
Default : Нет
Forced : Нет

Текст #7
Идентификатор : 10
Формат : UTF-8
Идентификатор кодека : S_TEXT/UTF8
Идентификатор кодека/Информация : UTF-8 Plain Text
Заголовок : SDH-Colored
Язык : English
Default : Нет
Forced : Нет

Меню
00:00:00.000 : en:(01)00:00:00:000
00:10:39.346 : en:(02)00:10:39:346
00:19:56.778 : en:(03)00:19:56:778
00:29:43.698 : en:(04)00:29:43:698
00:40:24.672 : en:(05)00:40:24:672
00:50:18.556 : en:(06)00:50:18:556
00:59:32.235 : en:(07)00:59:32:235
01:10:17.712 : en:(08)01:10:17:712
01:22:43.917 : en:(09)01:22:43:917

pb.wtf



Скачать Красотки в бегах через торрент http://i68.fastpic.ru/big/2015/0910/cd/0dd5a549b3dc63ac7976a888c8916ccd.png Скачать фильм Красотки в бегах через торрент бесплантно в хорошем качестве Описание: Сверхдобросовестный офицер полиции Купер гордится своим назначением на, казалось бы, простое задание - сопроводить жену мафиози, ... 9.5 10 10
Торрент: Зарегистрирован [2015-10-18 16:18] · скачан: 194 раз
Статус: √ проверено
Размер: 2.18 GB
Как cкачать? Как скачать Красотки в бегах через торрент | qTorrent

% Раздел Тема Автор DL S | L
Ultra HD (UHD: 2K, 4K, 8K) — видео сверхвысокой чёткости [ 17.73 GB ] Красотки в бегах / Hot Pursuit [2015 UHD WEB-DL 2160p] DUB [] bober100 Скачать
1 | 0
Фильмы [HD 720p, 1080p] (Хороший звук DUB, MVO) [ 8.18 GB ] Красотки в бегах / Hot Pursuit [2015 BDRip 1080p] DUB - / Newton5 Скачать
1 | 0
Фильмы 2015 [DVDrip, WEB-DLRip, HDrip] [ 1.46 GB ] Красотки в бегах / Hot Pursuit [2015 BDRip] DUB Twi7ter Скачать
1 | 0
Фильмы 2015 [DVDrip, WEB-DLRip, HDrip] [ 1.46 GB ] Красотки в бегах / Hot Pursuit [2015 BDRip-AVC] DUB potroks Скачать
1 | 0
Фильмы (Blu-ray, BD-Remux, HDDVD) [ 16.59 GB ] Красотки в бегах / Hot Pursuit [2015 BD Remux] DUB Ворон Скачать
1 | 0
Фильмы 2015 [DVDrip, WEB-DLRip, HDrip] [ 1.55 GB ] Красотки в бегах / Hot Pursuit [2015 BDRip-AVC] DUB - / Newton5 Скачать
1 | 0

28-11-2019 20:33  

Отключить всю рекламу на сайте

    Дорогой пользователь! Огромная просьба, поблагодарите релизера, оцените раздачу и оставьте свои комментарий, если Вы скачали Красотки в бегах через торрент бесплатно! Внесите свою лепту в развитие PiratBit!
    Комментировать посты могут только пользователи прошедшие не сложную регистрацию
    Показать сообщения:    

    Красотки в бегах через торрент
    Скачать бесплатно Красотки в бегах
    Красотки в бегах скачать торрент
    Красотки в бегах смотреть онлайн
    Cкачать фильм Красотки в бегах бесплатно
    Красотки в бегах скачать торрент в хорошем качестве
    Красотки в бегах смотреть онлайн бесплатно в хорошем качестве


    Вы не можете начинать темы
    Вы не можете отвечать на сообщения
    Вы не можете редактировать свои сообщения
    Вы не можете удалять свои сообщения
    Вы не можете голосовать в опросах
    Вы не можете прикреплять файлы к сообщениям
    Вы можете скачивать файлы