Ссылка на приватное зеркало всего за 1$. Внимание количество ограничено!!!

OK

1+1

iTunes

мы

OK

1

WEB-DLRip

Джокер

Пифагор

Ведьмак / The Witcher сериал

iTunes

ПШазам

ОК

Оно 2

iTunes

30
pack

Вам бонус

ВАЖНО

!!Акция!!

Alien_RageХит недели

RePack

Resident Evil 21

ИГРА 18+

pack

RePack

jed

RePack

fifa19

RePack

Assassins Creed: Odyssey

RePack

NEED FOR SPEED™ PAYBACK

4 сезон

9 сезон

Бесстыжие 9 сезон

Все сериалы

все сериалы на PB.wtf

RePack

FAR CRY 5
  

Машина времени в джакузи 2 (Стив Пинк / Steve Pink) [2015, Фантастика, комедия, BDRip-AVC от potroks] [Театральная версия] DUB Лицензия pb.wtf

Машина времени в джакузи 2 через торрент pb.wtf

Размер: 1.44 GB | Добавлен: 4 года 3 мес. назад | Торрент скачан:98 раз
Скачать  

10-07-2015 14:00 Машина времени в джакузи 2 Скачать торрент  

Машина времени в джакузи 2
Год выпуска: 2015
Страна: США / Paramount Pictures, Metro-Goldwyn-Mayer (MGM)
Жанр: Фантастика, комедия
Продолжительность: 01:33:24
Перевод: Дубляж [лицензия]
Субтитры: Английские (Full + SDH)

Режиссер: Стив Пинк / Steve Pink

В ролях: Роб Кордри, Крэйг Робинсон, Кларк Дьюк, Адам Скотт, Гиллиан Джейкобс, Чеви Чейз, Коллетт Вульф, Бьянка Хаазе, Джейсон Джонс, Кумэйл Нанджиани

Описание: Когда Лу попадает в беду, Ник и Джейкоб решают воспользоваться машиной времени в джакузи, чтобы вернуться в прошлое, но неожиданно оказываются в будущем с Адамом младшим. Теперь им придется изменить будущее, чтобы исправить события в прошлом.



Качество: BDRip-AVC
Формат: MKV
Видео кодек: H.264
Аудио кодек: AC3
Видео: 960x540 (16:9), 23.976 fps, 1763 kbps, 0.142 bit/pixel
Аудио: 48 kHz, AC3 Dolby Digital, 3/2 (L,C,R,l,r) + LFE ch, 448.00 kbps

Релиз группы:
Автор рипа: potroks

Общее
Уникальный идентификатор : 182868924835254813990850965314408536900 (0x89934619513BA70B99F6BBCCAE57DB44)
Полное имя : N:\Фантастика\Mashyna.Vremeni.v.Dzhakuzi.2.TC.2015.RUS.BDRip.x264.-HELLYWOOD.mkv
Формат : Matroska
Версия формата : Version 4 / Version 2
Размер файла : 1,44 Гбайт
Продолжительность : 1 ч. 33 м.
Общий поток : 2211 Кбит/сек
Название фильма : Hot Tub Time Machine 2 (2015) - HELLYWOOD
Дата кодирования : UTC 2015-07-10 13:05:49
Программа кодирования : mkvmerge v5.9.0 ('On The Loose') built on Dec 15 2012 16:39:58
Библиотека кодирования : libebml v1.3.0 + libmatroska v1.4.0

Видео
Идентификатор : 1
Формат : AVC
Формат/Информация : Advanced Video Codec
Профиль формата : High@L4.1
Параметр CABAC формата : Да
Параметр ReFrames формата : 12 кадров
Идентификатор кодека : V_MPEG4/ISO/AVC
Продолжительность : 1 ч. 33 м.
Битрейт : 1763 Кбит/сек
Ширина : 960 пикселей
Высота : 540 пикселей
Соотношение сторон : 16:9
Режим частоты кадров : Постоянный
Частота кадров : 23,976 кадра/сек
Цветовое пространство : YUV
Субдискретизация насыщенности : 4:2:0
Битовая глубина : 8 бит
Тип развёртки : Прогрессивная
Бит/(Пиксели*Кадры) : 0.142
Размер потока : 1,12 Гбайт (78%)
Заголовок : potroks
Библиотека кодирования : x264 core 146 r2538 121396c
Настройки программы : cabac=1 / ref=12 / deblock=1:-2:-2 / analyse=0x3:0x113 / me=umh / subme=11 / psy=1 / psy_rd=1.02:0.04 / mixed_ref=1 / me_range=48 / chroma_me=1 / trellis=2 / 8x8dct=1 / cqm=0 / deadzone=21,11 / fast_pskip=0 / chroma_qp_offset=-3 / threads=9 / lookahead_threads=2 / sliced_threads=0 / nr=0 / decimate=1 / interlaced=0 / bluray_compat=0 / constrained_intra=0 / bframes=13 / b_pyramid=2 / b_adapt=2 / b_bias=0 / direct=3 / weightb=1 / open_gop=0 / weightp=2 / keyint=250 / keyint_min=23 / scenecut=40 / intra_refresh=0 / rc_lookahead=60 / rc=2pass / mbtree=0 / bitrate=1763 / ratetol=1.0 / qcomp=0.70 / qpmin=0 / qpmax=69 / qpstep=4 / cplxblur=20.0 / qblur=0.5 / vbv_maxrate=14000 / vbv_bufsize=14000 / nal_hrd=none / filler=0 / ip_ratio=1.35 / pb_ratio=1.25 / aq=1:0.80
Язык : English
Default : Да
Forced : Нет

Аудио
Идентификатор : 2
Формат : AC-3
Формат/Информация : Audio Coding 3
Расширение режима : CM (complete main)
Параметр Endianness формата : Big
Идентификатор кодека : A_AC3
Продолжительность : 1 ч. 33 м.
Вид битрейта : Постоянный
Битрейт : 448 Кбит/сек
Каналы : 6 каналов
Расположение каналов : Front: L C R, Side: L R, LFE
Частота : 48,0 КГц
Метод сжатия : С потерями
Размер потока : 299 Мбайт (20%)
Заголовок : Dub | DD 5.1 @ 448 kbps
Язык : Russian
Default : Да
Forced : Нет

Текст #1
Идентификатор : 3
Формат : UTF-8
Идентификатор кодека : S_TEXT/UTF8
Идентификатор кодека/Информация : UTF-8 Plain Text
Заголовок : Full
Язык : English
Default : Нет
Forced : Нет

Текст #2
Идентификатор : 4
Формат : UTF-8
Идентификатор кодека : S_TEXT/UTF8
Идентификатор кодека/Информация : UTF-8 Plain Text
Заголовок : SDH
Язык : English
Default : Нет
Forced : Нет

Меню
00:00:00.000 : en:Chapter 01
00:07:51.137 : en:Chapter 02
00:17:17.536 : en:Chapter 03
00:23:30.283 : en:Chapter 04
00:29:24.804 : en:Chapter 05
00:35:51.232 : en:Chapter 06
00:40:03.109 : en:Chapter 07
00:46:36.293 : en:Chapter 08
00:55:45.300 : en:Chapter 09
01:01:17.590 : en:Chapter 10
01:06:49.380 : en:Chapter 11
01:13:33.909 : en:Chapter 12
01:20:22.234 : en:Chapter 13
01:28:52.618 : en:Chapter 14

pb.wtf



Скачать Машина времени в джакузи 2 через торрент http://pic.kartinco.top/images/11/6vc9m.jpg Скачать фильм Машина времени в джакузи 2 через торрент бесплантно в хорошем качестве Описание: Когда Лу попадает в беду, Ник и Джейкоб решают воспользоваться машиной времени в джакузи, чтобы вернуться в прошлое, но ... 9.3 10 16
Торрент: Зарегистрирован [2015-10-18 16:17] · скачан: 98 раз
Статус: √ проверено
Размер: 1.44 GB
Как cкачать? Как скачать Машина времени в джакузи 2 через торрент | qTorrent

% Раздел Тема Автор DL S | L
Фильмы 2015 [DVDrip, WEB-DLRip, HDrip] [ 1.46 GB ] Машина времени в джакузи 2 [2015 BDRip] [Театральная версия] DUB Twi7ter Скачать
1 | 0
T Фильмы [HD 720p, 1080p] (Хороший звук DUB, MVO) [ 4.08 GB ] Машина времени в джакузи 2 [2015 BDRip 720p] DUB [UNRATED] Ворон Скачать
1 | 0
Фильмы 2015 [DVDrip, WEB-DLRip, HDrip] [ 1.37 GB ] Машина времени в джакузи 2 [2015 HDRip] DUB [UNRATED] Ворон Скачать
1 | 0
Фильмы [HD 720p, 1080p] (Хороший звук DUB, MVO) [ 4.55 GB ] Машина времени в джакузи 2 [2015 BDRip 720p] [Театральная версия] Ворон Скачать
1 | 0

28-11-2019 20:33  

Отключить всю рекламу на сайте

    Дорогой пользователь! Огромная просьба, поблагодарите релизера, оцените раздачу и оставьте свои комментарий, если Вы скачали Машина времени в джакузи 2 через торрент бесплатно! Внесите свою лепту в развитие PiratBit!
    Комментировать посты могут только пользователи прошедшие не сложную регистрацию
    Показать сообщения:    

    Машина времени в джакузи 2 через торрент
    Скачать бесплатно Машина времени в джакузи 2
    Машина времени в джакузи 2 скачать торрент
    Машина времени в джакузи 2 смотреть онлайн
    Cкачать фильм Машина времени в джакузи 2 бесплатно
    Машина времени в джакузи 2 скачать торрент в хорошем качестве
    Машина времени в джакузи 2 смотреть онлайн бесплатно в хорошем качестве


    Вы не можете начинать темы
    Вы не можете отвечать на сообщения
    Вы не можете редактировать свои сообщения
    Вы не можете удалять свои сообщения
    Вы не можете голосовать в опросах
    Вы не можете прикреплять файлы к сообщениям
    Вы можете скачивать файлы