Marvel's Avengers Deluxe Edition (супер цена) 159р. Внимание количество ограничено!!!

2 сезон

iTunes

iTunes

1

iTunes

iTunes

iTunes

WEBRip

iTunes

30
pack

Новость дня

ВАЖНО

!!Акция!!

Alien_RageХит недели

RePack

Horizon Zero Dawn

ИГРА 18+

pack

RePack

jed

!!Акция!!

Alien_Rage

RePack

fifa19

RePack

Assassins Creed: Odyssey

RePack

NEED FOR SPEED™ PAYBACK

4 сезон

9 сезон

Бесстыжие 9 сезон

Все сериалы

все сериалы на PB.wtf

RePack

FAR CRY 5
  

Пиксели / Pixels (Крис Коламбус / Chris Columbus) [2015, фантастика, боевик, комедия, BDRip-AVC от potroks] DUB Лицензия pb.wtf

Пиксели через торрент pb.wtf

Размер: 1.46 GB | Добавлен: 4 года 10 мес. назад | Торрент скачан:709 раз
Скачать  

12-10-2015 14:17 Пиксели Скачать торрент  

Пиксели / Pixels
«It's time to save the World»
Год выпуска: 2015
Страна: США, Китай, Канада / Columbia Pictures, China Film Co.
Жанр: фантастика, боевик, комедия
Продолжительность: 01:45:50
Перевод: Дубляж [BD CEE]
Субтитры: русские (полные + форс.)
Навигация по главам: есть
Режиссер: Крис Коламбус / Chris Columbus
В ролях:

Адам Сэндлер (Brenner), Кевин Джеймс (Cooper), Мишель Монахэн (Violet), Питер Динклэйдж (Eddie), Джош Гад (Ludlow), Брайан Кокс (Admiral Porter), Мэттью Линтц (Matty), Шон Бин (Corporal Hill (SAS Officer)), Джейн Краковски (First Lady Jane Cooper), Дэн Эйкройд (1982 Championship MC), Эффион Крокетт (Sergeant Dylan Cohan), Лэйни Казан (Mickey Lamonsoff)
Описание: Очередное вторжение инопланетян на Землю... Вы скажете: «Что может быть банальнее?!». Да, если бы на этот раз они не предстали в виде героев вселенски популярных компьютерных игр. Сражаться с пришельцами призвана команда бывших геймеров, в числе которых: Президент Соединенных Штатов Америки; карлик-зэк, большой ценитель прекрасного пола; зануда-параноик, свято верящий в теорию вселенского заговора; профессиональный неудачник и циник, в детстве подававший большие надежды. А помогает новоиспеченным героям очаровательная ученая фея.

Качество: BDRip-AVC
Формат: MKV
Видео кодек: AVC
Аудио кодек: AC3
Видео: AVC, 912x380 (2.40:1), 1592 kbps, 23,976 fps, 0,192 bit/pixel
Аудио: AC3 / 5.1 / 48 kHz / 384 kbps / 16 bit

Релиз группы:
Автор рипа: potroks

Код:

General
Unique ID                                : 204424300013694247587604426956238158425 (0x99CAB025BA4382ECB1FB5A151FEAFA59)
Complete name                            : Pikseli.2015.RUS.BDRip.x264.-HELLYWOOD.mkv
Format                                   : Matroska
Format version                           : Version 4 / Version 2
File size                                : 1.46 GiB
Duration                                 : 1h 45mn
Overall bit rate                         : 1 977 Kbps
Movie name                               : Pixels (2015) - HELLYWOOD
Encoded date                             : UTC 2010-02-22 21:41:31
Writing application                      : mkvmerge v5.8.0 ('No Sleep / Pillow') built on Sep 30 2012 10:57:14
Writing library                          : libebml v1.3.0 + libmatroska v1.4.0

Video
ID                                       : 1
Format                                   : AVC
Format/Info                              : Advanced Video Codec
Format profile                           : High@L4.1
Format settings, CABAC                   : Yes
Format settings, ReFrames                : 12 frames
Codec ID                                 : V_MPEG4/ISO/AVC
Duration                                 : 1h 45mn
Bit rate                                 : 1 592 Kbps
Width                                    : 912 pixels
Height                                   : 380 pixels
Display aspect ratio                     : 2.40:1
Frame rate                               : 23.976 fps
Color space                              : YUV
Chroma subsampling                       : 4:2:0
Bit depth                                : 8 bits
Scan type                                : Progressive
Bits/(Pixel*Frame)                       : 0.192
Stream size                              : 1.15 GiB (79%)
Title                                    : potroks
Writing library                          : x264 core 146 r2538 121396c
Encoding settings                        : cabac=1 / ref=12 / deblock=1:-2:-2 / analyse=0x3:0x113 / me=umh / subme=11 / psy=1 / psy_rd=1.00:0.05 / mixed_ref=1 / me_range=56 / chroma_me=1 / trellis=2 / 8x8dct=1 / cqm=0 / deadzone=21,11 / fast_pskip=0 / chroma_qp_offset=-3 / threads=9 / lookahead_threads=2 / sliced_threads=0 / nr=0 / decimate=1 / interlaced=0 / bluray_compat=0 / constrained_intra=0 / bframes=13 / b_pyramid=2 / b_adapt=2 / b_bias=0 / direct=3 / weightb=1 / open_gop=0 / weightp=2 / keyint=250 / keyint_min=23 / scenecut=40 / intra_refresh=0 / rc_lookahead=60 / rc=2pass / mbtree=0 / bitrate=1592 / ratetol=1.0 / qcomp=0.70 / qpmin=0 / qpmax=69 / qpstep=4 / cplxblur=20.0 / qblur=0.5 / vbv_maxrate=14000 / vbv_bufsize=14000 / nal_hrd=none / filler=0 / ip_ratio=1.35 / pb_ratio=1.25 / aq=1:0.80
Language                                 : English
Default                                  : Yes
Forced                                   : No

Audio
ID                                       : 2
Format                                   : AC-3
Format/Info                              : Audio Coding 3
Mode extension                           : CM (complete main)
Codec ID                                 : A_AC3
Duration                                 : 1h 45mn
Bit rate mode                            : Constant
Bit rate                                 : 384 Kbps
Channel(s)                               : 6 channels
Channel positions                        : Front: L C R, Side: L R, LFE
Sampling rate                            : 48.0 KHz
Bit depth                                : 16 bits
Compression mode                         : Lossy
Stream size                              : 291 MiB (19%)
Title                                    : Dub | DD 5.1 @ 384 kbps - iTunes
Language                                 : Russian
Default                                  : Yes
Forced                                   : No

Text #1
ID                                       : 3
Format                                   : UTF-8
Codec ID                                 : S_TEXT/UTF8
Codec ID/Info                            : UTF-8 Plain Text
Title                                    : Forced
Language                                 : Russian
Default                                  : Yes
Forced                                   : No

Text #2
ID                                       : 4
Format                                   : UTF-8
Codec ID                                 : S_TEXT/UTF8
Codec ID/Info                            : UTF-8 Plain Text
Default                                  : No
Forced                                   : No

Menu
00:00:00.000                             : en:(01)00:00:00:000
00:04:54.043                             : en:(02)00:04:54:043
00:10:21.662                             : en:(03)00:10:21:662
00:14:51.764                             : en:(04)00:14:51:764
00:19:51.815                             : en:(05)00:19:51:815
00:26:19.868                             : en:(06)00:26:19:868
00:32:57.808                             : en:(07)00:32:57:808
00:40:35.474                             : en:(08)00:40:35:474
00:47:40.481                             : en:(09)00:47:40:481
00:52:33.275                             : en:(10)00:52:33:275
00:58:56.074                             : en:(11)00:58:56:074
01:05:07.695                             : en:(12)01:05:07:695
01:09:23.073                             : en:(13)01:09:23:073
01:18:13.020                             : en:(14)01:18:13:020
01:27:54.185                             : en:(15)01:27:54:185
01:33:53.002                             : en:(16)01:33:53:002


pb.wtf



Скачать Пиксели через торрент http://i65.fastpic.ru/big/2015/1012/bb/3862d2453791e885128d959c78c727bb.png Скачать фильм Пиксели через торрент бесплантно в хорошем качестве Описание: Очередное вторжение инопланетян на Землю... Вы скажете: «Что может быть банальнее?!». Да, если бы на этот раз они не предстали в ... 9.3 10 26
Info! Золотая раздача, скачанное не засчитывается.
Торрент: Зарегистрирован [2015-10-23 20:51] · скачан: 709 раз
Статус: √ проверено
Размер: 1.46 GB
Как cкачать? Как скачать Пиксели через торрент | qTorrent

% Раздел Тема Автор DL S | L
Ultra HD (UHD: 2K, 4K, 8K) — видео сверхвысокой чёткости [ 23.82 GB ] Пиксели / Pixels [2015 UHD WEB-DL 2160p] DUB [] bober100 Скачать
1 | 0
Фильмы [HD 720p, 1080p] (Хороший звук DUB, MVO) [ 4.37 GB ] Пиксели / Pixels [2015 BDRip 720p] DUB potroks Скачать
2 | 0
Фильмы 2015 [DVDrip, WEB-DLRip, HDrip] [ 1.47 GB ] Пиксели / Pixels [2015 BDRip] [] killermax2013 Скачать
1 | 0
Фильмы 2015 [DVDrip, WEB-DLRip, HDrip] [ 746 MB ] Пиксели / Pixels [2015 Китай BDRip-AVC от sokol_ok] DUB sokol_ok Скачать
2 | 0
Фильмы 2015 [DVDrip, WEB-DLRip, HDrip] [ 1.46 GB ] Пиксели / Pixels [2015 Китай BDRip-AVC от sokol_ok] DUB sokol_ok Скачать
2 | 0
Фильмы 2015 [DVDrip, WEB-DLRip, HDrip] [ 2.18 GB ] Пиксели / Pixels [2015 BDRip-AVC] DUB potroks Скачать
1 | 0

28-11-2019 20:33  

Отключить всю рекламу на сайте

28-10-2015 20:05 Пиксели Скачать торрент  

От так пока сам не отдашь 5к очков ... золота не будет :rofle:
спс заценим фильмец!pb.wtf



    Дорогой пользователь! Огромная просьба, поблагодарите релизера, оцените раздачу и оставьте свои комментарий, если Вы скачали Пиксели через торрент бесплатно! Внесите свою лепту в развитие PiratBit!
    Комментировать посты могут только пользователи прошедшие не сложную регистрацию
    Показать сообщения:    

    Пиксели через торрент
    Скачать бесплатно Пиксели
    Пиксели скачать торрент
    Пиксели смотреть онлайн
    Cкачать фильм Пиксели бесплатно
    Пиксели скачать торрент в хорошем качестве
    Пиксели смотреть онлайн бесплатно в хорошем качестве


    Вы не можете начинать темы
    Вы не можете отвечать на сообщения
    Вы не можете редактировать свои сообщения
    Вы не можете удалять свои сообщения
    Вы не можете голосовать в опросах
    Вы не можете прикреплять файлы к сообщениям
    Вы можете скачивать файлы