Ссылка на приватное зеркало всего за 1$. Внимание количество ограничено!!!

OK

1+1

iTunes

мы

OK

1

WEB-DLRip

Джокер

Пифагор

Ведьмак / The Witcher сериал

iTunes

ПШазам

ОК

Оно 2

iTunes

30
pack

Вам бонус

ВАЖНО

!!Акция!!

Alien_RageХит недели

RePack

Resident Evil 21

ИГРА 18+

pack

RePack

jed

RePack

fifa19

RePack

Assassins Creed: Odyssey

RePack

NEED FOR SPEED™ PAYBACK

4 сезон

9 сезон

Бесстыжие 9 сезон

Все сериалы

все сериалы на PB.wtf

RePack

FAR CRY 5
  

Царь скорпионов 4: Утерянный трон (Майк Эллиот) [2015, США, боевик, HDRip, Дублированное [iTunes] pb.wtf

Царь скорпионов 4: Утерянный трон через торрент pb.wtf

Размер: 1.39 GB | Добавлен: 4 года 3 мес. назад | Торрент скачан:142 раза
Скачать  

11-02-2015 21:24 Царь скорпионов 4: Утерянный трон Скачать торрент  

Царь скорпионов 4: Утерянный трон


  • Год выпуска: 2015
  • Страна: США
  • Жанр: боевик
  • Продолжительность: 01:44:51
  • Перевод: Дублированное [iTunes]

  • Режиссер: Майк Эллиот / Mike Elliott
  • В ролях:

    Ройс Грейси (Anngar), Эсме Бьянко, Майкл Бин, Бэрри Боствик, Стивен Данливи, Грант Эллиотт, Лу Ферриньо (Skizurra), Ли Гилл (Chief Onus), Роджер Халстон (Roland), Брэндон Хардести, Рутгер Хауэр (King Zakour), Эллен Холлман

  • Описание:
    В очередной киноленте о «Царе скорпионов» мы увидим как отстранённый от своего трона король-воин Метайюс принимает решение отправиться на самое страшное и ужасное задание своей жизни. Все это Метайюс решает сделать ради того, чтобы на его земле снова воцарился мир. Все вроде бы шло своим чередом, но однажды от Метайюса отворачивается его самый близкий и лучший друг, такого он никак не мог предвидеть. Теперь герой самолично должен противостоять страшному злодею, который готов на все только бы убить его. Сможет ли Метайюс, приложив все свои силы, противостоять своему противнику?! И добьётся ли наш герой того, ради чего он отважился на эту битву, наступит ли умиротворение на его земле?!
  • Рейтинг:



  • Качество: HDRip
  • Формат: :AVI
  • Видео кодек: XviD
  • Аудио кодек: AC3
  • Видео: 720x400 (16:9), 1473 kbps, 23,976 fps, 0,218 bpp
  • Аудио №1: AC3, 384 kb/s (6 ch) / 48 kHz

  • Оформление: GEKADOL

    Код:

    General
    Complete name                            : I:\The.Scorpion.King.4.Quest.for.Power.2015.HDRip.XviD.Rus.Eng.avi
    Format                                   : AVI
    Format/Info                              : Audio Video Interleave
    File size                                : 1.39 GiB
    Duration                                 : 1h 44mn
    Overall bit rate                         : 1 902 Kbps
    Writing application                      : VirtualDubMod 1.5.10.2 (build 2540/release)
    Writing library                          : VirtualDubMod build 2540/release

    Video
    ID                                       : 0
    Format                                   : MPEG-4 Visual
    Format profile                           : Advanced Simple@L5
    Format settings, BVOP                    : 2
    Format settings, QPel                    : No
    Format settings, GMC                     : No warppoints
    Format settings, Matrix                  : Default (H.263)
    Codec ID                                 : XVID
    Codec ID/Hint                            : XviD
    Duration                                 : 1h 44mn
    Bit rate                                 : 1 504 Kbps
    Width                                    : 720 pixels
    Height                                   : 400 pixels
    Display aspect ratio                     : 16:9
    Frame rate                               : 23.976 fps
    Color space                              : YUV
    Chroma subsampling                       : 4:2:0
    Bit depth                                : 8 bits
    Scan type                                : Progressive
    Compression mode                         : Lossy
    Bits/(Pixel*Frame)                       : 0.218
    Stream size                              : 1.10 GiB (79%)
    Writing library                          : XviD 1.2.1 (UTC 2008-12-04)

    Audio #1
    ID                                       : 1
    Format                                   : MPEG Audio
    Format version                           : Version 1
    Format profile                           : Layer 3
    Mode                                     : Joint stereo
    Codec ID                                 : 55
    Codec ID/Hint                            : MP3
    Duration                                 : 1h 44mn
    Bit rate mode                            : Constant
    Bit rate                                 : 384 Kbps
    Channel(s)                               : 6 channels
    Sampling rate                            : 48.0 KHz
    Compression mode                         : Lossy
    Stream size                              : 144 MiB (10%)
    Alignment                                : Aligned on interleaves
    Interleave, duration                     : 42 ms (1.00 video frame)
    Interleave, preload duration             : 504 ms


    Скриншоты:



    pb.wtf



  • Скачать Царь скорпионов 4: Утерянный трон через торрент http://i63.fastpic.ru/big/2015/0110/0a/880a413c14eb8ac85bf6ac777fcffa0a.jpg Скачать фильм Царь скорпионов 4: Утерянный трон через торрент бесплантно в хорошем качестве Описание: В очередной киноленте о «Царе скорпионов» мы увидим как отстранённый от своего трона король-воин Метайюс принимает решение ... 9.8 10 25
    Торрент: Зарегистрирован [2015-10-18 16:10] · скачан: 142 раз
    Статус: √ проверено
    Размер: 1.39 GB
    Как cкачать? Как скачать Царь скорпионов 4: Утерянный трон через торрент | qTorrent

    % Раздел Тема Автор DL S | L
    Фильмы 2015 [DVDrip, WEB-DLRip, HDrip] [ 2.15 GB ] Царь скорпионов 4: Утерянный трон [2015 HDRip "'] coc900 Скачать
    3 | 0
    Фильмы 2015 [DVDrip, WEB-DLRip, HDrip] [ 1.39 GB ] Царь скорпионов 4: Утерянный трон [2015 BDRip MVO] [BaibaKo] GEKADOL Скачать
    1 | 0
    Фильмы без перевода [ 8.21 GB ] Царь скорпионов 4: Утерянный трон [2015 BDRip 1080p Оригинальный] killermax2013 Скачать
    1 | 0
    Фильмы [HD 720p, 1080p] (Хороший звук DUB, MVO) [ 7.16 GB ] Царь скорпионов 4: Утерянный трон [2015 BDRip 720p Дублированное Ворон Скачать
    1 | 0
    Фильмы [HD 720p, 1080p] (Хороший звук DUB, MVO) [ 5.74 GB ] Царь скорпионов 4: Утерянный трон [2015 BDRip 720p MVO] [BaibaKo] GEKADOL Скачать
    1 | 0

    28-11-2019 20:33  

    Отключить всю рекламу на сайте

    11-02-2015 21:52 Царь скорпионов 4: Утерянный трон Скачать торрент  

    Бредовый фильм с плоским йумором (ИМХО, конечно).pb.wtf



    11-02-2015 21:54 Царь скорпионов 4: Утерянный трон Скачать торрент  

    AMD писал(а):

    Бредовый фильм с плоским йумором (ИМХО, конечно).

    Никто и не сомневается...pb.wtf



    11-02-2015 22:06 Царь скорпионов 4: Утерянный трон Скачать торрент  

    я его смотрел сразу после "вычислителя", так что это почти шэдевр)pb.wtf



      Дорогой пользователь! Огромная просьба, поблагодарите релизера, оцените раздачу и оставьте свои комментарий, если Вы скачали Царь скорпионов 4: Утерянный трон через торрент бесплатно! Внесите свою лепту в развитие PiratBit!
      Комментировать посты могут только пользователи прошедшие не сложную регистрацию
      Показать сообщения:    

      Царь скорпионов 4: Утерянный трон через торрент
      Скачать бесплатно Царь скорпионов 4: Утерянный трон
      Царь скорпионов 4: Утерянный трон скачать торрент
      Царь скорпионов 4: Утерянный трон смотреть онлайн
      Cкачать фильм Царь скорпионов 4: Утерянный трон бесплатно
      Царь скорпионов 4: Утерянный трон скачать торрент в хорошем качестве
      Царь скорпионов 4: Утерянный трон смотреть онлайн бесплатно в хорошем качестве


      Вы не можете начинать темы
      Вы не можете отвечать на сообщения
      Вы не можете редактировать свои сообщения
      Вы не можете удалять свои сообщения
      Вы не можете голосовать в опросах
      Вы не можете прикреплять файлы к сообщениям
      Вы можете скачивать файлы