Ссылка на приватное зеркало всего за 1$. Внимание количество ограничено!!!

OK

1+1

iTunes

мы

OK

1

WEB-DLRip

Джокер

Пифагор

Ведьмак / The Witcher сериал

iTunes

ПШазам

ОК

Оно 2

iTunes

30
pack

Вам бонус

ВАЖНО

!!Акция!!

Alien_RageХит недели

RePack

Resident Evil 21

ИГРА 18+

pack

RePack

jed

RePack

fifa19

RePack

Assassins Creed: Odyssey

RePack

NEED FOR SPEED™ PAYBACK

4 сезон

9 сезон

Бесстыжие 9 сезон

Все сериалы

все сериалы на PB.wtf

RePack

FAR CRY 5
  

Отель «Мэриголд»: Дилогия / Marigold Hotel: Dilogy (Джон Мэдден / John Madden) [2011-2015, драма, комедия, BDRip-AVC от potroks] DUB Лицензия pb.wtf

Отель «Мэриголд»: Дилогия через торрент pb.wtf

Размер: 4.36 GB | Добавлен: 4 года 3 мес. назад | Торрент скачан:85 раз
Скачать  

23-07-2015 17:24 Отель «Мэриголд»: Дилогия Скачать торрент  



Название: Отель «Мэриголд»: Дилогия
Оригинальное название: Marigold Hotel: Dilogy

Год выхода: 2011, 2015 г.,
Жанр: Драма, комедия
Продолжительность: 02:03:44 | 02:02:40
Год выпуска: 2011
Страна: Великобритания, США, ОАЭ / Blueprint Pictures, Imagenation Abu Dhabi FZ
Жанр: драма, комедия
Продолжительность: 02:03:44
Перевод: Дубляж - [BD CEE]
Субтитры: русские, украинские, английские (Full), английские (SDH),
Навигация по главам: есть
Режиссер: Джон Мэдден / John Madden
В ролях:

Джуди Денч (Evelyn Greenslade), Билл Найи (Douglas Ainslie), Дев Патель (Sonny Kapoor), Том Уилкинсон (Graham Dashwood), Мэгги Смит (Muriel Donnelly), Пенелопа Уилтон (Jean Ainslie), Селия Имри (Madge Hardcastle), Рональд Пикап (Norman Cousins), Патрик Пирсон (Graham's Colleague), Хью Диксон (Judge), Джеймс Роулингс (Estate Agent), Лиза Тарбак (Staff Nurse)
Описание: Фильм повествует о группе британских пенсионеров, которые решили «удалиться на покой» в менее затратную по расходам и гораздо более экзотическую Индию. Соблазнившись рекламой о заново восстановленном отеле «Мериголд» и в предвкушении жизни полной удовольствий и безделья, они прибывают на место, только чтобы обнаружить, что отель, на самом деле, представляет собой лишь бледную тень своего былого величия. Но, несмотря на то, что окружающая обстановка далека от той роскоши, которую они себе представляли, совместные приключения бесповоротно меняют каждого из них, и они осознают, что можно начать жить заново и найти любовь, если отпустить прошлое...

Качество: BDRip-AVC
Формат: MKV
Видео кодек: AVC
Аудио кодек: AC3
Видео: AVC, 920x392 (2.35:1), 1626 kbps, 23,976 fps, 0,188 bit/pixel
Аудио №1: AC3 / 5.1 / 48 kHz / 448 kbps / 16 bit | RUS
Аудио №2: AC3 / 5.1 / 48 kHz / 448 kbps / 16 bit | ENG
Релиз группы:
Автор рипа: potroks

Код:

General
Unique ID                                : 174887591400717892692191847556780787699 (0x83921FFAA0F17116B41710707DC207F3)
Complete name                            : N:\Комедия\Otel'.Merigold.Dilogy.[2011-2015].-HELLYWOOD\Otel'.Merigold.Luchshyi.iz.Ekzoticheskih.2011.DUAL.BDRip.x264.-HELLYWOOD.mkv
Format                                   : Matroska
Format version                           : Version 4 / Version 2
File size                                : 2.18 GiB
Duration                                 : 2h 3mn
Overall bit rate                         : 2 524 Kbps
Movie name                               : The Best Exotic Marigold Hotel (2011) - HELLYWOOD
Encoded date                             : UTC 2015-07-23 15:41:13
Writing application                      : mkvmerge v5.9.0 ('On The Loose') built on Dec 15 2012 16:39:58
Writing library                          : libebml v1.3.0 + libmatroska v1.4.0

Video
ID                                       : 1
Format                                   : AVC
Format/Info                              : Advanced Video Codec
Format profile                           : High@L4.1
Format settings, CABAC                   : Yes
Format settings, ReFrames                : 11 frames
Codec ID                                 : V_MPEG4/ISO/AVC
Duration                                 : 2h 3mn
Bit rate                                 : 1 626 Kbps
Width                                    : 920 pixels
Height                                   : 392 pixels
Display aspect ratio                     : 2.35:1
Frame rate                               : 23.976 fps
Color space                              : YUV
Chroma subsampling                       : 4:2:0
Bit depth                                : 8 bits
Scan type                                : Progressive
Bits/(Pixel*Frame)                       : 0.188
Stream size                              : 1.36 GiB (63%)
Title                                    : potroks
Writing library                          : x264 core 146 r2538 121396c
Encoding settings                        : cabac=1 / ref=11 / deblock=1:-2:-2 / analyse=0x3:0x113 / me=umh / subme=11 / psy=1 / psy_rd=1.03:0.06 / mixed_ref=1 / me_range=48 / chroma_me=1 / trellis=2 / 8x8dct=1 / cqm=0 / deadzone=21,11 / fast_pskip=0 / chroma_qp_offset=-3 / threads=9 / lookahead_threads=2 / sliced_threads=0 / nr=0 / decimate=1 / interlaced=0 / bluray_compat=0 / constrained_intra=0 / bframes=12 / b_pyramid=2 / b_adapt=2 / b_bias=0 / direct=3 / weightb=1 / open_gop=0 / weightp=2 / keyint=250 / keyint_min=23 / scenecut=40 / intra_refresh=0 / rc_lookahead=60 / rc=2pass / mbtree=0 / bitrate=1626 / ratetol=1.0 / qcomp=0.70 / qpmin=0 / qpmax=69 / qpstep=4 / cplxblur=20.0 / qblur=0.5 / vbv_maxrate=14000 / vbv_bufsize=14000 / nal_hrd=none / filler=0 / ip_ratio=1.35 / pb_ratio=1.25 / aq=1:0.80
Language                                 : English
Default                                  : Yes
Forced                                   : No

Audio #1
ID                                       : 2
Format                                   : AC-3
Format/Info                              : Audio Coding 3
Mode extension                           : CM (complete main)
Codec ID                                 : A_AC3
Duration                                 : 2h 3mn
Bit rate mode                            : Constant
Bit rate                                 : 448 Kbps
Channel(s)                               : 6 channels
Channel positions                        : Front: L C R, Side: L R, LFE
Sampling rate                            : 48.0 KHz
Bit depth                                : 16 bits
Compression mode                         : Lossy
Stream size                              : 397 MiB (18%)
Title                                    : Dub | DD 5.1 @ 448 kbps - Blu-Ray CEE
Language                                 : Russian
Default                                  : Yes
Forced                                   : No

Audio #2
ID                                       : 3
Format                                   : AC-3
Format/Info                              : Audio Coding 3
Mode extension                           : CM (complete main)
Codec ID                                 : A_AC3
Duration                                 : 2h 3mn
Bit rate mode                            : Constant
Bit rate                                 : 448 Kbps
Channel(s)                               : 6 channels
Channel positions                        : Front: L C R, Side: L R, LFE
Sampling rate                            : 48.0 KHz
Bit depth                                : 16 bits
Compression mode                         : Lossy
Stream size                              : 397 MiB (18%)
Title                                    : Original | DD 5.1 @ 448 kbps
Language                                 : English
Default                                  : No
Forced                                   : No

Text #1
ID                                       : 4
Format                                   : UTF-8
Codec ID                                 : S_TEXT/UTF8
Codec ID/Info                            : UTF-8 Plain Text
Language                                 : Russian
Default                                  : No
Forced                                   : No

Text #2
ID                                       : 5
Format                                   : UTF-8
Codec ID                                 : S_TEXT/UTF8
Codec ID/Info                            : UTF-8 Plain Text
Language                                 : Ukrainian
Default                                  : No
Forced                                   : No

Text #3
ID                                       : 6
Format                                   : UTF-8
Codec ID                                 : S_TEXT/UTF8
Codec ID/Info                            : UTF-8 Plain Text
Title                                    : Full
Language                                 : English
Default                                  : No
Forced                                   : No

Text #4
ID                                       : 7
Format                                   : UTF-8
Codec ID                                 : S_TEXT/UTF8
Codec ID/Info                            : UTF-8 Plain Text
Title                                    : SDH
Language                                 : English
Default                                  : No
Forced                                   : No

Menu
00:00:00.000                             : en:(01)00:00:00:000
00:07:29.615                             : en:(02)00:07:29:615
00:11:43.369                             : en:(03)00:11:43:369
00:21:02.135                             : en:(04)00:21:02:135
00:27:33.860                             : en:(05)00:27:33:860
00:34:23.561                             : en:(06)00:34:23:561
00:40:06.946                             : en:(07)00:40:06:946
00:43:47.166                             : en:(08)00:43:47:166
00:47:42.651                             : en:(09)00:47:42:651
00:50:45.333                             : en:(10)00:50:45:333
00:54:12.582                             : en:(11)00:54:12:582
00:57:08.842                             : en:(12)00:57:08:842
01:00:23.953                             : en:(13)01:00:23:953
01:03:26.052                             : en:(14)01:03:26:052
01:06:52.550                             : en:(15)01:06:52:550
01:10:29.058                             : en:(16)01:10:29:058
01:15:00.621                             : en:(17)01:15:00:621
01:18:49.808                             : en:(18)01:18:49:808
01:22:09.716                             : en:(19)01:22:09:716
01:28:06.614                             : en:(20)01:28:06:614
01:31:40.703                             : en:(21)01:31:40:703
01:34:19.028                             : en:(22)01:34:19:028
01:39:22.039                             : en:(23)01:39:22:039
01:41:38.467                             : en:(24)01:41:38:467
01:47:31.486                             : en:(25)01:47:31:486
01:50:21.698                             : en:(26)01:50:21:698
01:53:50.281                             : en:(27)01:53:50:281
01:57:16.738                             : en:(28)01:57:16:738
02:03:45.209                             : en:(29)02:03:45:209


[/screens][/center]
Год выпуска: 2015
Страна: Великобритания, США / Blueprint Pictures.
Жанр: драма, комедия

Продолжительность: 02:02:40
Перевод: Дубляж [BD CEE]
Субтитры: русские (полные + форс.), украинские (полные + форс.), английские (Forced + Full + SDH + SDH-Colored)
Навигация по главам: есть
Режиссер: Джон Мэдден / John Madden
В ролях:

Дев Патель (Sonny Kapoor), Мэгги Смит (Muriel Donnelly), Дэнни Махони (Car Valet), Дэвид Стрэтэйрн (Ty Burley), Джуди Денч (Evelyn Greenslade), Билл Найи (Douglas Ainslie), Селия Имри (Madge Hardcastle), Рональд Пикап (Norman Cousins), Диана Хардкэсл (Carol Parr), Сабхраджоти Барат (Hari), Фиона Моллисон (Susan), Захари Соффин (American Tourist)
Описание: Отель «Мэриголд» не был бы экзотическим, если бы не поселил двух незнакомых друг с другом людей в один номер; и он не стал бы лучшим, если бы из этого не произошло ничего хорошего.

Качество: BDRip-AVC
Формат: MKV
Видео кодек: AVC
Аудио кодек: AC3
Видео: AVC, 1020x426 (2.40:1), 1648 kbps, 23,976 fps, 0,158 bit/pixel
Аудио №1: AC3 / 5.1 / 48 kHz / 448 kbps / 16 bit | RUS
Аудио №2: AC3 / 5.1 / 48 kHz / 448 kbps / 16 bit | ENG
Релиз группы:
Автор рипа: potroks

Код:

General
Unique ID                                : 231982912732425476128225791967388881130 (0xAE8648A88AE344B7987CD94E65D9D0EA)
Complete name                            : N:\Комедия\Otel'.Merigold.Dilogy.[2011-2015].-HELLYWOOD\Otel'.Merigold.Zaseleniye.Prodolzhaetsya.2015.DUAL.BDRip.x264.-HELLYWOOD.mkv
Format                                   : Matroska
Format version                           : Version 4 / Version 2
File size                                : 2.18 GiB
Duration                                 : 2h 2mn
Overall bit rate                         : 2 546 Kbps
Movie name                               : The Best Exotic Marigold Hotel (2011) - HELLYWOOD
Encoded date                             : UTC 2015-07-23 16:33:40
Writing application                      : mkvmerge v5.9.0 ('On The Loose') built on Dec 15 2012 16:39:58
Writing library                          : libebml v1.3.0 + libmatroska v1.4.0

Video
ID                                       : 1
Format                                   : AVC
Format/Info                              : Advanced Video Codec
Format profile                           : High@L4.1
Format settings, CABAC                   : Yes
Format settings, ReFrames                : 11 frames
Codec ID                                 : V_MPEG4/ISO/AVC
Duration                                 : 2h 2mn
Bit rate                                 : 1 648 Kbps
Width                                    : 1 020 pixels
Height                                   : 426 pixels
Display aspect ratio                     : 2.40:1
Frame rate                               : 23.976 fps
Color space                              : YUV
Chroma subsampling                       : 4:2:0
Bit depth                                : 8 bits
Scan type                                : Progressive
Bits/(Pixel*Frame)                       : 0.158
Stream size                              : 1.37 GiB (63%)
Title                                    : potroks
Writing library                          : x264 core 146 r2538 121396c
Encoding settings                        : cabac=1 / ref=11 / deblock=1:-2:-2 / analyse=0x3:0x113 / me=umh / subme=11 / psy=1 / psy_rd=1.05:0.10 / mixed_ref=1 / me_range=48 / chroma_me=1 / trellis=2 / 8x8dct=1 / cqm=0 / deadzone=21,11 / fast_pskip=0 / chroma_qp_offset=-3 / threads=9 / lookahead_threads=2 / sliced_threads=0 / nr=0 / decimate=1 / interlaced=0 / bluray_compat=0 / constrained_intra=0 / bframes=12 / b_pyramid=2 / b_adapt=2 / b_bias=0 / direct=3 / weightb=1 / open_gop=0 / weightp=2 / keyint=250 / keyint_min=23 / scenecut=40 / intra_refresh=0 / rc_lookahead=60 / rc=2pass / mbtree=0 / bitrate=1648 / ratetol=1.0 / qcomp=0.70 / qpmin=0 / qpmax=69 / qpstep=4 / cplxblur=20.0 / qblur=0.5 / vbv_maxrate=14000 / vbv_bufsize=14000 / nal_hrd=none / filler=0 / ip_ratio=1.35 / pb_ratio=1.25 / aq=1:0.80
Language                                 : English
Default                                  : Yes
Forced                                   : No

Audio #1
ID                                       : 2
Format                                   : AC-3
Format/Info                              : Audio Coding 3
Mode extension                           : CM (complete main)
Codec ID                                 : A_AC3
Duration                                 : 2h 2mn
Bit rate mode                            : Constant
Bit rate                                 : 448 Kbps
Channel(s)                               : 6 channels
Channel positions                        : Front: L C R, Side: L R, LFE
Sampling rate                            : 48.0 KHz
Bit depth                                : 16 bits
Compression mode                         : Lossy
Stream size                              : 393 MiB (18%)
Title                                    : Dub | DD 5.1 @ 448 kbps - Blu-Ray CEE
Language                                 : Russian
Default                                  : Yes
Forced                                   : No

Audio #2
ID                                       : 3
Format                                   : AC-3
Format/Info                              : Audio Coding 3
Mode extension                           : CM (complete main)
Codec ID                                 : A_AC3
Duration                                 : 2h 2mn
Bit rate mode                            : Constant
Bit rate                                 : 448 Kbps
Channel(s)                               : 6 channels
Channel positions                        : Front: L C R, Side: L R, LFE
Sampling rate                            : 48.0 KHz
Bit depth                                : 16 bits
Compression mode                         : Lossy
Stream size                              : 393 MiB (18%)
Title                                    : Original | DD 5.1 @ 448 kbps
Language                                 : English
Default                                  : No
Forced                                   : No

Text #1
ID                                       : 4
Format                                   : UTF-8
Codec ID                                 : S_TEXT/UTF8
Codec ID/Info                            : UTF-8 Plain Text
Title                                    : Forced
Language                                 : Russian
Default                                  : Yes
Forced                                   : No

Text #2
ID                                       : 5
Format                                   : UTF-8
Codec ID                                 : S_TEXT/UTF8
Codec ID/Info                            : UTF-8 Plain Text
Title                                    : Blu-Ray
Language                                 : Russian
Default                                  : No
Forced                                   : No

Text #3
ID                                       : 6
Format                                   : UTF-8
Codec ID                                 : S_TEXT/UTF8
Codec ID/Info                            : UTF-8 Plain Text
Title                                    : Forced
Language                                 : Ukrainian
Default                                  : No
Forced                                   : No

Text #4
ID                                       : 7
Format                                   : UTF-8
Codec ID                                 : S_TEXT/UTF8
Codec ID/Info                            : UTF-8 Plain Text
Title                                    : Blu-Ray
Language                                 : Ukrainian
Default                                  : No
Forced                                   : No

Text #5
ID                                       : 8
Format                                   : UTF-8
Codec ID                                 : S_TEXT/UTF8
Codec ID/Info                            : UTF-8 Plain Text
Title                                    : Forced
Language                                 : English
Default                                  : No
Forced                                   : No

Text #6
ID                                       : 9
Format                                   : UTF-8
Codec ID                                 : S_TEXT/UTF8
Codec ID/Info                            : UTF-8 Plain Text
Title                                    : Full
Language                                 : English
Default                                  : No
Forced                                   : No

Text #7
ID                                       : 10
Format                                   : UTF-8
Codec ID                                 : S_TEXT/UTF8
Codec ID/Info                            : UTF-8 Plain Text
Title                                    : SDH
Language                                 : English
Default                                  : No
Forced                                   : No

Text #8
ID                                       : 11
Format                                   : UTF-8
Codec ID                                 : S_TEXT/UTF8
Codec ID/Info                            : UTF-8 Plain Text
Title                                    : SDH-Colored
Language                                 : English
Default                                  : No
Forced                                   : No

Menu
00:00:00.000                             : en:(01)00:00:00:000
00:04:14.336                             : en:(02)00:04:14:336
00:09:35.865                             : en:(03)00:09:35:865
00:15:14.955                             : en:(04)00:15:14:955
00:19:20.659                             : en:(05)00:19:20:659
00:23:01.797                             : en:(06)00:23:01:797
00:28:20.030                             : en:(07)00:28:20:030
00:32:28.695                             : en:(08)00:32:28:695
00:36:00.782                             : en:(09)00:36:00:782
00:39:55.101                             : en:(10)00:39:55:101
00:44:39.092                             : en:(11)00:44:39:092
00:49:53.407                             : en:(12)00:49:53:407
00:53:55.731                             : en:(13)00:53:55:731
00:58:33.635                             : en:(14)00:58:33:635
01:02:55.271                             : en:(15)01:02:55:271
01:05:19.206                             : en:(16)01:05:19:206
01:10:42.488                             : en:(17)01:10:42:488
01:14:29.881                             : en:(18)01:14:29:881
01:17:48.372                             : en:(19)01:17:48:372
01:21:25.171                             : en:(20)01:21:25:171
01:26:55.627                             : en:(21)01:26:55:627
01:30:52.195                             : en:(22)01:30:52:195
01:35:17.670                             : en:(23)01:35:17:670
01:38:34.742                             : en:(24)01:38:34:742
01:44:33.975                             : en:(25)01:44:33:975
01:47:40.119                             : en:(26)01:47:40:119
01:52:02.923                             : en:(27)01:52:02:923
01:56:27.979                             : en:(28)01:56:27:979
02:02:40.144                             : en:(29)02:02:40:144

pb.wtf



Скачать Отель «Мэриголд»: Дилогия через торрент http://pic.kartinco.top/images/11/glfhz.jpg Скачать фильм Отель «Мэриголд»: Дилогия через торрент бесплантно в хорошем качестве Описание: Фильм повествует о группе британских пенсионеров, которые решили «удалиться на покой» в менее затратную по расходам и гораздо ... 9.2 10 12
Торрент: Зарегистрирован [2015-10-18 16:08] · скачан: 85 раз
Статус: √ проверено
Размер: 4.36 GB
Как cкачать? Как скачать Отель «Мэриголд»: Дилогия через торрент | qTorrent

28-11-2019 20:33  

Отключить всю рекламу на сайте

23-07-2015 17:36 Отель «Мэриголд»: Дилогия Скачать торрент  

Спасибище, норм фильм!pb.wtf



23-07-2015 18:30 Отель «Мэриголд»: Дилогия Скачать торрент  

чет не верю я в такой рейтинг, но так уж и быть!! уговорили черти полосатые!! pb.wtf



    Дорогой пользователь! Огромная просьба, поблагодарите релизера, оцените раздачу и оставьте свои комментарий, если Вы скачали Отель «Мэриголд»: Дилогия через торрент бесплатно! Внесите свою лепту в развитие PiratBit!
    Комментировать посты могут только пользователи прошедшие не сложную регистрацию
    Показать сообщения:    

    Отель «Мэриголд»: Дилогия через торрент
    Скачать бесплатно Отель «Мэриголд»: Дилогия
    Отель «Мэриголд»: Дилогия скачать торрент
    Отель «Мэриголд»: Дилогия смотреть онлайн
    Cкачать фильм Отель «Мэриголд»: Дилогия бесплатно
    Отель «Мэриголд»: Дилогия скачать торрент в хорошем качестве
    Отель «Мэриголд»: Дилогия смотреть онлайн бесплатно в хорошем качестве


    Вы не можете начинать темы
    Вы не можете отвечать на сообщения
    Вы не можете редактировать свои сообщения
    Вы не можете удалять свои сообщения
    Вы не можете голосовать в опросах
    Вы не можете прикреплять файлы к сообщениям
    Вы можете скачивать файлы