Ссылка на приватное зеркало всего за 1$. Внимание количество ограничено!!!

iTunes

iTunes

iTunes

1

iTunes

iTunes

iTunes

iTunes

iTunes

30
pack

Новость дня

ВАЖНО

!!Акция!!

Alien_RageХит недели

RePack

Resident Evil 21

ИГРА 18+

pack

RePack

jed

!!Акция!!

Alien_Rage

RePack

fifa19

RePack

Assassins Creed: Odyssey

RePack

NEED FOR SPEED™ PAYBACK

4 сезон

9 сезон

Бесстыжие 9 сезон

Все сериалы

все сериалы на PB.wtf

RePack

FAR CRY 5
  

Орлеан (Андрей Прошкин) [2015 г., комедия, триллер, WEB-DLRip] pb.wtf

Орлеан через торрент pb.wtf

Размер: 2.16 GB | Добавлен: 4 года 7 мес. назад | Торрент скачан:732 раза
Скачать  

18-10-2015 18:21 Орлеан Скачать торрент  

Орлеан
Год выпуска: 2015
Страна: Россия
Жанр: комедия, триллер
Продолжительность: 01:50:19
Перевод: Не требуется

Режиссер: Андрей Прошкин

IMDB 8.00 (260)


В ролях: Елена Лядова, Виктор Сухоруков, Виталий Хаев, Олег Ягодин, Тимофей Трибунцев, Павел Табаков, Евгений Сытый, Александр Бавтриков, Азамат Нигманов, Полина Шулика

Описание: На русский провинциальный город с необычным названием Орлеан надвигается буря. Пока что о ней не догадываются его жители: парикмахерша Лида спит с кем ни попадя; врач Рудик водит к себе девиц, пользуясь служебным положением; полицейский не гнушается убийством; а фокусник, кажется, и вправду перепиливает девушек на сцене.

Качество: WEB-DLRip
Формат: AVI
Видео кодек: XviD
Аудио кодек: AC3
Видео: 720x304 (2.37:1), 24.000 fps, XviD build 50 ~2409 kbps avg, 0.46 bit/pixel
Аудио: 48 kHz, AC3 Dolby Digital, 3/2 (L,C,R,l,r) + LFE ch, ~384 kbps

General
Complete name : F:\кино\Орлеан.2015.O.WEB-DLRip.avi
Format : AVI
Format/Info : Audio Video Interleave
Format profile : OpenDML
File size : 2.16 GiB
Duration : 1h 50mn
Overall bit rate : 2 800 Kbps
Writing application : VirtualDubMod 1.5.10.3 | www.virtualdub-fr.org || (build 2550/release)
Writing library : VirtualDubMod build 2550/release

Video
ID : 0
Format : MPEG-4 Visual
Format profile : Advanced Simple@L5
Format settings, BVOP : 2
Format settings, QPel : No
Format settings, GMC : No warppoints
Format settings, Matrix : Default (H.263)
Codec ID : XVID
Codec ID/Hint : XviD
Duration : 1h 50mn
Bit rate : 2 404 Kbps
Width : 720 pixels
Height : 304 pixels
Display aspect ratio : 2.35:1
Frame rate : 24.000 fps
Color space : YUV
Chroma subsampling : 4:2:0
Bit depth : 8 bits
Scan type : Progressive
Compression mode : Lossy
Bits/(Pixel*Frame) : 0.458
Stream size : 1.85 GiB (86%)
Writing library : XviD 1.2.1 (UTC 2008-12-04)

Audio
ID : 1
Format : AC-3
Format/Info : Audio Coding 3
Mode extension : CM (complete main)
Format settings, Endianness : Big
Codec ID : 2000
Duration : 1h 50mn
Bit rate mode : Constant
Bit rate : 384 Kbps
Channel(s) : 6 channels
Channel positions : Front: L C R, Side: L R, LFE
Sampling rate : 48.0 KHz
Compression mode : Lossy
Stream size : 303 MiB (14%)
Alignment : Split accross interleaves
Interleave, duration : 42 ms (1.00 video frame)
Interleave, preload duratio : 500 ms

pb.wtf



Скачать Орлеан через торрент http://pic1.kartinco.top/images/10/m7uxf.jpg Скачать фильм Орлеан через торрент бесплантно в хорошем качестве Описание: На русский провинциальный город с необычным названием Орлеан надвигается буря. Пока что о ней не догадываются его жители: ... 9 10 25
Info! Золотая раздача, скачанное не засчитывается.
Торрент: Зарегистрирован [2015-10-18 18:21] · скачан: 732 раз
Статус: T временная
Размер: 2.16 GB
Как cкачать? Как скачать Орлеан через торрент | qTorrent

% Раздел Тема Автор DL S | L
Наши новые фильмы 2015 [ 1.46 GB ] Орлеан [2015 WEB-DLRip] [Русский] -Lexx- Скачать
1 | 0
Наши фильмы (HD, WEB-DL 720p, 1080p) [ 3.81 GB ] Орлеан [2015 WEB-DL 1080p] [Pусский] -Lexx- Скачать
1 | 0
Фильмы 2011 [ 744 MB ] Мальчишник в Новом Орлеане / Mardi Gras: Spring Break [2011 DVDRip лицензия] 744mb SD Скачать
1 | 0
Фильмы 2011 [ 1.37 GB ] Мальчишник в Новом Орлеане / Mardi Gras: Spring Break [2011 DVDRip] shuller Скачать
1 | 0
Фильмы (DVD фильмы) [ 5.1 GB ] Мальчишник в Новом Орлеане / Mardi Gras: Spring Break [2011 DVD9] R5 «Columbia/Sony» voovaz Скачать
1 | 0

28-11-2019 20:33  

Отключить всю рекламу на сайте

19-10-2015 19:04 Орлеан Скачать торрент  

посмотрел , теперь моргнуть не могу :omg:pb.wtf



20-10-2015 18:42 Орлеан Скачать торрент  

лицо высверливающие себе глаза миксером.жипегpb.wtf



22-10-2015 09:24 Орлеан Скачать торрент  

Бляха - муха, а фильм то как? :rofle: :rofle: :rofle:pb.wtf



21-12-2015 09:21 Орлеан Скачать торрент  

Посмотрел 30минут такое г...о,как такое снимают.pb.wtf



08-02-2016 12:44 Орлеан Скачать торрент  

Норм..Asylum нервно курит в сторонке..))))pb.wtf



29-02-2016 18:21 Орлеан Скачать торрент  

полное обожрались и сняли жопа самое сердцивинаpb.wtf



23-03-2016 15:12 Орлеан Скачать торрент  

Жутковато как то от такой"комедии"))))pb.wtf



    Дорогой пользователь! Огромная просьба, поблагодарите релизера, оцените раздачу и оставьте свои комментарий, если Вы скачали Орлеан через торрент бесплатно! Внесите свою лепту в развитие PiratBit!
    Комментировать посты могут только пользователи прошедшие не сложную регистрацию
    Показать сообщения:    

    Орлеан через торрент
    Скачать бесплатно Орлеан
    Орлеан скачать торрент
    Орлеан смотреть онлайн
    Cкачать фильм Орлеан бесплатно
    Орлеан скачать торрент в хорошем качестве
    Орлеан смотреть онлайн бесплатно в хорошем качестве


    Вы не можете начинать темы
    Вы не можете отвечать на сообщения
    Вы не можете редактировать свои сообщения
    Вы не можете удалять свои сообщения
    Вы не можете голосовать в опросах
    Вы не можете прикреплять файлы к сообщениям
    Вы можете скачивать файлы