Ссылка на приватное зеркало нашего сайта всего за 1$. Внимание количество ограничено!!!

2 сезон

iTunes

1 сезон

1

iTunes

iTunes

iTunes

1 сезон

RePack

30

ИГРА 18+

pack

ВАЖНО

!!Акция!!

Alien_RageХит недели

RePack

MK11
pack

Забери бонус

RePack

jed

!!Акция!!

Alien_Rage

RePack

fifa19

RePack

Assassins Creed: Odyssey

RePack

NEED FOR SPEED™ PAYBACK

4 сезон

9 сезон

Бесстыжие 9 сезон

Все сериалы

все сериалы на PB.wtf

RePack

FAR CRY 5
  

Контакт / Contact (Роберт Земекис) [1997, фантастика, триллер, драма, BDRip 1080p] 2x DUB, DVO, 2x AVO pb.wtf

Контакт через торрент pb.wtf

Размер: 14.53 GB | Добавлен: 5 лет назад | Торрент скачан:160 раз
Скачать  

19-10-2015 09:00 Контакт Скачать торрент  

Контакт / Contact«Get ready for human's biggest discovery ever!»

  • Год выхода: 1997
  • Жанр: фантастика, триллер, драма, детектив

  • Страна: США
  • Продолжительность: 02:29:44
  • Перевод:
  • Профессиональный (полное дублирование) - Мост Видео | Варус Видео
  • Профессиональный (двухголосый) - ТК Россия | Новый канал
  • Авторский (одноголосый) - Живов | Васильцев
  • Cубтитры: русские (Full), английские (Full), английские (SDH)
  • Режиссер: Роберт Земекис
  • В ролях:

    Джоди Фостер (Eleanor Arroway), Мэттью МакКонахи (Palmer Joss), Том Скеррит (David Drumlin), Джеймс Вудс (Michael Kitz), Анджела Бассетт (Rachel Constantine), Уильям Фихтнер (Kent), Джон Хёрт (S.R. Hadden), Дэвид Морс (Ted Arroway), Джена Мэлоун (Young Ellie), Джейк Бьюзи (Joseph), Джеффри Блейк (Fisher), Макс Мартини (Willie)


  • Радиоастроном доктор Элли Эрроуэй мечтала о звездах с детских лет, когда вместе с отцом занималась радиолюбительством и выходила на связь в эфир. Она рано потеряла родителей и думала, что они где-то далеко, в пространстве...

  • Качество: BDRip 1080p
  • Формат: MKV
  • Видео кодек: AVC
  • Аудио кодек: AC3
  • Видео: AVC, 1920x800 (2.40:1), 10758 kbps, 23,976 fps, 0,292 bpp
  • Аудио №1: русский / AC3 / 5.1 / 48 kHz / 448 kbps / 16 bit |Мост Видео|
  • Аудио №2: русский / AC3 / 2.0 / 48 kHz / 192 kbps / 16 bit |Варус Видео|
  • Аудио №3: русский / AC3 / 2.0 / 48 kHz / 192 kbps / 16 bit |ТК Россия|
  • Аудио №4: русский / AC3 / 5.1 / 48 kHz / 640 kbps / 16 bit |Живов|
  • Аудио №5: русский / AC3 / 5.1 / 48 kHz / 640 kbps / 16 bit |Васильцев|
  • Аудио №6: украинский / AC3 / 5.1 / 48 kHz / 384 kbps / 16 bit |Новый канал|
  • Аудио №7: английский / AC3 / 5.1 / 48 kHz / 640 kbps / 16 bit |Оригинал|
  • Навигация по главам: есть
  • Релиз от:

    За Украинскую дорожку спасибо

    Код:

    General
    Unique ID                                : 199565036724011803704974466045509956868 (0x9622D3F8543F8C10A59E0353462CF504)
    Complete name                            : H:\Contact. (1997) BDRip 1080p.mkv
    Format                                   : Matroska
    Format version                           : Version 2
    File size                                : 14.5 GiB
    Duration                                 : 2h 29mn
    Overall bit rate                         : 13.9 Mbps
    Movie name                               : Contact. 1997
    Encoded date                             : UTC 2014-11-21 21:09:28
    Writing application                      : mkvmerge v5.8.0 ('No Sleep / Pillow') built on Sep  2 2012 15:37:04
    Writing library                          : libebml v1.2.3 + libmatroska v1.3.0

    Video
    ID                                       : 1
    Format                                   : AVC
    Format/Info                              : Advanced Video Codec
    Format profile                           : High@L4.1
    Format settings, CABAC                   : Yes
    Format settings, ReFrames                : 5 frames
    Codec ID                                 : V_MPEG4/ISO/AVC
    Duration                                 : 2h 29mn
    Bit rate                                 : 10.8 Mbps
    Width                                    : 1 920 pixels
    Height                                   : 800 pixels
    Display aspect ratio                     : 2.40:1
    Frame rate                               : 23.976 fps
    Color space                              : YUV
    Chroma subsampling                       : 4:2:0
    Bit depth                                : 8 bits
    Scan type                                : Progressive
    Bits/(Pixel*Frame)                       : 0.292
    Stream size                              : 11.0 GiB (75%)
    Title                                    : HiDt
    Writing library                          : x264 core 77 r1281 3836218
    Encoding settings                        : cabac=1 / ref=5 / deblock=1:-3:-3 / analyse=0x3:0x113 / me=umh / subme=10 / psy=1 / psy_rd=1.0:0.0 / mixed_ref=1 / me_range=32 / chroma_me=1 / trellis=2 / 8x8dct=1 / cqm=0 / deadzone=21,11 / chroma_qp_offset=-2 / threads=6 / nr=0 / decimate=1 / mbaff=0 / constrained_intra=0 / bframes=9 / b_pyramid=1 / b_adapt=2 / b_bias=0 / direct=3 / wpredb=1 / keyint=250 / keyint_min=25 / scenecut=40 / rc=2pass / mbtree=0 / bitrate=10758 / ratetol=1.0 / qcomp=0.60 / qpmin=10 / qpmax=51 / qpstep=4 / cplxblur=20.0 / qblur=0.5 / ip_ratio=1.40 / pb_ratio=1.30 / aq=1:0.80
    Language                                 : English
    Default                                  : Yes
    Forced                                   : No

    Audio #1
    ID                                       : 2
    Format                                   : AC-3
    Format/Info                              : Audio Coding 3
    Mode extension                           : CM (complete main)
    Codec ID                                 : A_AC3
    Duration                                 : 2h 29mn
    Bit rate mode                            : Constant
    Bit rate                                 : 448 Kbps
    Channel(s)                               : 6 channels
    Channel positions                        : Front: L C R, Side: L R, LFE
    Sampling rate                            : 48.0 KHz
    Bit depth                                : 16 bits
    Compression mode                         : Lossy
    Stream size                              : 480 MiB (3%)
    Title                                    : D | License | Мост Видео
    Language                                 : Russian
    Default                                  : Yes
    Forced                                   : No

    Audio #2
    ID                                       : 3
    Format                                   : AC-3
    Format/Info                              : Audio Coding 3
    Mode extension                           : CM (complete main)
    Codec ID                                 : A_AC3
    Duration                                 : 2h 29mn
    Bit rate mode                            : Constant
    Bit rate                                 : 192 Kbps
    Channel(s)                               : 2 channels
    Channel positions                        : Front: L R
    Sampling rate                            : 48.0 KHz
    Bit depth                                : 16 bits
    Compression mode                         : Lossy
    Stream size                              : 206 MiB (1%)
    Title                                    : D | Варус Видео
    Language                                 : Russian
    Default                                  : No
    Forced                                   : No

    Audio #3
    ID                                       : 4
    Format                                   : AC-3
    Format/Info                              : Audio Coding 3
    Mode extension                           : CM (complete main)
    Codec ID                                 : A_AC3
    Duration                                 : 2h 29mn
    Bit rate mode                            : Constant
    Bit rate                                 : 192 Kbps
    Channel(s)                               : 2 channels
    Channel positions                        : Front: L R
    Sampling rate                            : 48.0 KHz
    Bit depth                                : 16 bits
    Compression mode                         : Lossy
    Stream size                              : 206 MiB (1%)
    Title                                    : P2 | ТК Россия
    Language                                 : Russian
    Default                                  : No
    Forced                                   : No

    Audio #4
    ID                                       : 5
    Format                                   : AC-3
    Format/Info                              : Audio Coding 3
    Mode extension                           : CM (complete main)
    Codec ID                                 : A_AC3
    Duration                                 : 2h 29mn
    Bit rate mode                            : Constant
    Bit rate                                 : 640 Kbps
    Channel(s)                               : 6 channels
    Channel positions                        : Front: L C R, Side: L R, LFE
    Sampling rate                            : 48.0 KHz
    Bit depth                                : 16 bits
    Compression mode                         : Lossy
    Stream size                              : 685 MiB (5%)
    Title                                    : A | Живов
    Language                                 : Russian
    Default                                  : No
    Forced                                   : No

    Audio #5
    ID                                       : 6
    Format                                   : AC-3
    Format/Info                              : Audio Coding 3
    Mode extension                           : CM (complete main)
    Codec ID                                 : A_AC3
    Duration                                 : 2h 29mn
    Bit rate mode                            : Constant
    Bit rate                                 : 640 Kbps
    Channel(s)                               : 6 channels
    Channel positions                        : Front: L C R, Side: L R, LFE
    Sampling rate                            : 48.0 KHz
    Bit depth                                : 16 bits
    Compression mode                         : Lossy
    Stream size                              : 685 MiB (5%)
    Title                                    : A | Васильцев
    Language                                 : Russian
    Default                                  : No
    Forced                                   : No

    Audio #6
    ID                                       : 7
    Format                                   : AC-3
    Format/Info                              : Audio Coding 3
    Mode extension                           : CM (complete main)
    Codec ID                                 : A_AC3
    Duration                                 : 2h 29mn
    Bit rate mode                            : Constant
    Bit rate                                 : 384 Kbps
    Channel(s)                               : 6 channels
    Channel positions                        : Front: L C R, Side: L R, LFE
    Sampling rate                            : 48.0 KHz
    Bit depth                                : 16 bits
    Compression mode                         : Lossy
    Delay relative to video                  : 200ms
    Stream size                              : 411 MiB (3%)
    Title                                    : P2 | Новый канал | HURTOM
    Language                                 : Ukrainian
    Default                                  : No
    Forced                                   : No

    Audio #7
    ID                                       : 8
    Format                                   : AC-3
    Format/Info                              : Audio Coding 3
    Mode extension                           : CM (complete main)
    Codec ID                                 : A_AC3
    Duration                                 : 2h 29mn
    Bit rate mode                            : Constant
    Bit rate                                 : 640 Kbps
    Channel(s)                               : 6 channels
    Channel positions                        : Front: L C R, Side: L R, LFE
    Sampling rate                            : 48.0 KHz
    Bit depth                                : 16 bits
    Compression mode                         : Lossy
    Stream size                              : 685 MiB (5%)
    Title                                    : Original
    Language                                 : English
    Default                                  : No
    Forced                                   : No

    Text #1
    ID                                       : 9
    Format                                   : UTF-8
    Codec ID                                 : S_TEXT/UTF8
    Codec ID/Info                            : UTF-8 Plain Text
    Title                                    : Full
    Language                                 : Russian
    Default                                  : No
    Forced                                   : No

    Text #2
    ID                                       : 10
    Format                                   : UTF-8
    Codec ID                                 : S_TEXT/UTF8
    Codec ID/Info                            : UTF-8 Plain Text
    Title                                    : Full
    Language                                 : English
    Default                                  : No
    Forced                                   : No

    Text #3
    ID                                       : 11
    Format                                   : UTF-8
    Codec ID                                 : S_TEXT/UTF8
    Codec ID/Info                            : UTF-8 Plain Text
    Title                                    : SDH
    Language                                 : English
    Default                                  : No
    Forced                                   : No

    Menu
    00:00:00.000                             : en:Chapter 01
    00:03:52.065                             : en:Chapter 02
    00:07:28.656                             : en:Chapter 03
    00:11:19.553                             : en:Chapter 04
    00:13:52.039                             : en:Chapter 05
    00:16:07.383                             : en:Chapter 06
    00:20:58.382                             : en:Chapter 07
    00:25:18.850                             : en:Chapter 08
    00:28:42.637                             : en:Chapter 09
    00:31:11.035                             : en:Chapter 10
    00:33:46.816                             : en:Chapter 11
    00:43:48.417                             : en:Chapter 12
    00:47:11.453                             : en:Chapter 13
    00:49:34.346                             : en:Chapter 14
    00:51:52.067                             : en:Chapter 15
    00:55:28.158                             : en:Chapter 16
    00:58:47.315                             : en:Chapter 17
    01:01:22.220                             : en:Chapter 18
    01:03:51.786                             : en:Chapter 19
    01:10:52.706                             : en:Chapter 20
    01:12:34.433                             : en:Chapter 21
    01:15:02.039                             : en:Chapter 22
    01:17:32.564                             : en:Chapter 23
    01:19:43.361                             : en:Chapter 24
    01:22:55.136                             : en:Chapter 25
    01:28:17.667                             : en:Chapter 26
    01:34:01.260                             : en:Chapter 27
    01:36:02.423                             : en:Chapter 28
    01:38:48.172                             : en:Chapter 29
    01:41:42.930                             : en:Chapter 30
    01:45:28.739                             : en:Chapter 31
    01:50:27.412                             : en:Chapter 32
    01:54:27.360                             : en:Chapter 33
    01:59:09.142                             : en:Chapter 34
    02:01:28.948                             : en:Chapter 35
    02:04:58.908                             : en:Chapter 36
    02:07:57.711                             : en:Chapter 37
    02:09:42.191                             : en:Chapter 38
    02:13:14.152                             : en:Chapter 39
    02:16:05.532                             : en:Chapter 40
    02:18:16.955                             : en:Chapter 41
    02:19:04.878                             : en:Chapter 42

    Скриншоты:


    © Оформление by -Lexx- pb.wtf



  • Скачать Контакт через торрент http://pic.kartinco.top/images/6/stazu.jpg Скачать фильм Контакт через торрент бесплантно в хорошем качестве qw.png Радиоастроном доктор Элли Эрроуэй мечтала о звездах с детских лет, когда вместе с отцом занималась радиолюбительством и выходила ... 9.2 10 11
    Info! Золотая раздача, скачанное не засчитывается.
    Торрент: Зарегистрирован [2015-10-19 09:00] · скачан: 160 раз
    Статус: √ проверено
    Размер: 14.53 GB
    Как cкачать? Как скачать Контакт через торрент | qTorrent

    28-11-2019 20:33  

    Отключить всю рекламу на сайте

    19-10-2015 11:22 Контакт Скачать торрент  

    Мне понравился,иногда даже пересматриваю pb.wtf



    19-10-2015 17:21 Контакт Скачать торрент  

    А описание можно было взять откуда-то еще?pb.wtf
    K-Lexx- писал(а):

    Можно. Вам можно всё. Возьмите.



    21-10-2015 21:11 Контакт Скачать торрент  

    тронут, mr. Lexx, тронут :declare:
    даю разрешение на использование доп. описания
    ...Однажды во время изучения «музыки сфер» он получила искусственный сигнал с Веги. По расшифрованным данным была построена установка для путешествия. Вокруг грандиозного проекта сгрудились не только энтузиасты, верящие в контакт, но и те, кто хотел помешать: скептики, представители ортодоксальных учений и террористы, уничтожившие первую установку. На другой Элли отправилась в неведомое…
    ю а pb.wtf



    22-10-2015 07:25 Контакт Скачать торрент  

    Отличное описание, mrAmerica, интригующее..
    Описание у Вас теперь есть, осталось совсем немного - прикрутить торрент-файл и оформить свою раздачу.
    Не сомневаюсь, у Вас всё получится. :hmmmpb.wtf



      Дорогой пользователь! Огромная просьба, поблагодарите релизера, оцените раздачу и оставьте свои комментарий, если Вы скачали Контакт через торрент бесплатно! Внесите свою лепту в развитие PiratBit!
      Комментировать посты могут только пользователи прошедшие не сложную регистрацию
      Показать сообщения:    

      Контакт через торрент
      Скачать бесплатно Контакт
      Контакт скачать торрент
      Контакт смотреть онлайн
      Cкачать фильм Контакт бесплатно
      Контакт скачать торрент в хорошем качестве
      Контакт смотреть онлайн бесплатно в хорошем качестве


      Вы не можете начинать темы
      Вы не можете отвечать на сообщения
      Вы не можете редактировать свои сообщения
      Вы не можете удалять свои сообщения
      Вы не можете голосовать в опросах
      Вы не можете прикреплять файлы к сообщениям
      Вы можете скачивать файлы