Достать ножи: Стеклянная луковица

MVO

Добыча

Дубляж

Уэнсдэй

1 сезон

Тор

Дубляж

13 клиническая

1 сезон

Жестокая ночь

MVO

Одни из нас

1 сезон

Deluxe

pack

Рекомендуем

30

Пиратка

ВАЖНО

ВАЖНО

Ghostwire

Пиратка

jed

RePack

nioh2

RePack

RDR2

RePack

NEED FOR SPEED™ PAYBACK

RePack

скачать торрент

Кинопоиск HD

Острые козырьки 6 сезон

6 сезон

FAR CRY 6

RePack

скачать торрент

Лицензия

скачать торрент

MVO

1

1 сезон

скачать торрент

1 сезон

скачать торрент

Лицензия

  

Снайперы (Болотбек Шамшиев) [1985, СССР, драма, военный, VHSRip от AVP Studio]

Снайперы через торрент pb.wtf

Размер: 746 MB | Добавлен: 7 лет 3 мес. назад | Торрент скачан:30 раз
Смотреть онлайн | Скачать | Поддержите нас   

19-10-2015 09:47 Снайперы Скачать торрент  

Снайперы
Страна: СССР
Производство: Казахфильм

Жанр: драма, военный
Год выпуска: 1985
Продолжительность: 01:34:17

Перевод: Не требуется
Cубтитры: нет
Оригинальная аудиодорожка: русский

Режиссер: Болотбек Шамшиев

В ролях:
Айтурган Темирова, Марина Яковлева, Вера Глаголева, Елена Мельникова, Николай Скоробогатов, Касым Жакибаев, Юозас Киселюс, Эмиль Борончиев, Михаил Крылов (Шулейкин), Георгий Мартиросян, Джейхун (Джейк) Мирзоев, Татьяна Конюхова, Екатерина Горяева, Светлана Евстратова, Оразхан Кенебаев, Байкенже (Байкал) Бельбаев, Александр Беспалый, Анатолий Чарноцкий...
Полный список актёров

Описание:
Фильм посвящен Герою Советского Союза Алие Молдагуловой, погибшей в боях за освобождение Ленинграда.

Источник: VHS
Качество видео: VHSRip
Формат видео: AVI

Видео: 640x448 (1,429:1), 25 fps, XviD ~ 968 kbps avg, 0.135 bit/pixel
Аудио: 48 kHz, Dolby Digital AC3 2.0, 128 kbps

Раздача от:
Общее
Полное имя : Snaypery.1982.VHSRip_[New-team]_by_AVP_Studio.avi
Формат : AVI
Формат/Информация : Audio Video Interleave
Размер файла : 746 Мбайт
Продолжительность : 1 ч. 34 м.
Общий поток : 1106 Кбит/сек
Программа кодирования : VirtualDubMod 1.5.10.3 | www.virtualdub-fr.org || (build 2550/release)
Библиотека кодирования : VirtualDubMod build 2550/release

Видео
Идентификатор : 0
Формат : MPEG-4 Visual
Профиль формата : Advanced [email protected]
Параметр BVOP формата : 1
Параметр QPel формата : Нет
Параметр GMC формата : Без точки перехода
Параметр матрицы формата : Выборочная
Идентификатор кодека : XVID
Идентификатор кодека/Подсказка : XviD
Продолжительность : 1 ч. 34 м.
Битрейт : 968 Кбит/сек
Ширина : 640 пикселей
Высота : 448 пикселей
Соотношение сторон : 1,429
Частота кадров : 25,000 кадров/сек
Цветовое пространство : YUV
Субдискретизация насыщенности : 4:2:0
Битовая глубина : 8 бит
Тип развёртки : Прогрессивная
Метод сжатия : С потерями
Бит/(Пиксели*Кадры) : 0.135
Размер потока : 653 Мбайт (88%)
Библиотека кодирования : XviD 73

Аудио
Идентификатор : 1
Формат : AC-3
Формат/Информация : Audio Coding 3
Расширение режима : CM (complete main)
Параметр Endianness формата : Big
Идентификатор кодека : 2000
Продолжительность : 1 ч. 34 м.
Вид битрейта : Постоянный
Битрейт : 128 Кбит/сек
Каналы : 2 канала
Расположение каналов : Front: L R
Частота : 48,0 КГц
Метод сжатия : С потерями
Задержка видео : 124 мс.
Размер потока : 86,3 Мбайт (12%)
Выравнивание : Разделение по промежуткам
Продолжительность промежутка : 40 мс. (1,00 видеокадр)
Время предзагрузки промежутка : 500 мс



Скачать Снайперы через торрент http://s020.radikal.ru/i723/1510/8b/254e67c7f0c8.png Скачать, смотреть онлайн Снайперы бесплантно в хорошем качестве Описание:Фильм посвящен Герою Советского Союза Алие Молдагуловой, погибшей в боях за освобождение Ленинграда. Источник: ... 7 10 3
Торрент: Зарегистрирован [2015-10-19 09:47] · скачан: 30 раз
Статус: √ проверено
Размер: 746 MB
Как cкачать? Как скачать Снайперы через торрент | UTorrent

% Раздел Тема Автор DL S | L
Кино СССР [ 1.09 GB ] Снайперы | | Снайперы (Болотбек Шамшиев AVP Studio Скачать
1 | 0

28-11-2019 20:33  


Отключить вcю реклaмy на сайте, в т.ч. и в плеере онлайн просмотра!

    Дорогой пользователь! Огромная просьба, поблагодарите релизера, оцените раздачу и оставьте свои комментарий, если Вы скачали Снайперы через торрент бесплатно!!
    Комментировать посты могут только пользователи прошедшие не сложную регистрацию
    Показать сообщения:    


    Снайперы через торрент
    Скачать бесплатно Снайперы
    Снайперы скачать торрент
    Снайперы смотреть онлайн
    Cкачать фильм Снайперы бесплатно
    Снайперы скачать торрент в хорошем качестве
    Снайперы смотреть онлайн бесплатно в хорошем качестве
    Вы не можете начинать темы
    Вы не можете отвечать на сообщения
    Вы не можете редактировать свои сообщения
    Вы не можете удалять свои сообщения
    Вы не можете голосовать в опросах
    Вы не можете прикреплять файлы к сообщениям
    Вы можете скачивать файлы
    Снайперы [1985, СССР, драма, военный, VHSRip от AVP Studio] смотреть онлайн, скачать торрент picoco.icu