новый адрес пиратбит piratbit
Мега распродажа FORZA HORIZON 4 ULTIMATE+ВСЕ DLC+ОНЛАЙН всего за 499р. 349 руб. (супер цена). Внимание количество ограничено!!!

iTunes

1+1

iTunes

мы

iTunes

1

iTunes

Чернобыль

iTunes

Ральф против интернета

Лицензия

ПШазам

Лицензия

Игра престолов

Лицензия

30
pack

ВАЖНО

!!Акция!!

Alien_RageХит недели

RePack

Resident Evil 21

ИГРА 18+

pack

RePack

Metro:Exodus

!!Акция!!

Alien_Rage

RePack

fifa19

RePack

Assassins Creed: Odyssey

RePack

NEED FOR SPEED™ PAYBACK

3 сезон

9 сезон

Бесстыжие 9 сезон

Все сериалы

все сериалы на PB.wtf

RePack

FAR CRY 5
Ребята, катастрофически не хватает 1900р. для оплаты серверов за Октябрь (всвязи с блокировками трафик упал в 3 раза), 1-2р., выручайте.
  

Он был не один (Загид Сабитов) [1969, СССР, военный, SATRip от AVP Studio] pb.wtf

Он был не один через торрент pb.wtf

Размер: 745 MB | Добавлен: 4 года назад | Торрент скачан:5 раз
Скачать  

19-10-2015 09:50 Он был не один Скачать торрент  

Он был не один
Страна: СССР
Производство: Узбекфильм

Жанр: военный
Год выпуска: 1969
Продолжительность: 01:13:00

Перевод: Не требуется
Cубтитры: нет
Оригинальная аудиодорожка: русский

Режиссер: Загид Сабитов

В ролях:
Шухрат Иргашев, Рудольф Аллаберт, Михаил Погоржельский, Владислав Стржельчик, Клеон Протасов, Владимир Прохоров, Георгий Шевцов, Олев Эскола, Маури Раус, Олег Глинка...
Полный список актёров

Описание:
Действие происходит на севере Скандинавии, где гитлеровская Германия старалась удержать свой последний рубеж. Сюда волею обстоятельств попадает летчик-штурман узбек Акбар Ибрагимов (Шухрат Эргашев), самолет которого был сбит в бою, и вступает в ряды участников Сопротивления. Вскоре ему удалось пробраться офицером на немецкую подводную лодку и позже сообщать о секретных базах противника.

Источник: DVB
Качество видео: SATRip
Формат видео: AVI

Видео: 688x272 (2,529:1), 25 fps, XviD ~ 1226 kbps avg, 0.262 bit/pixel
Аудио: 48 kHz, Dolby Digital AC3 2.0, 192 kbps

Раздача от:
Общее
Полное имя : On.byl.ne.odin.1969.SATRip_[New-team]_by_AVP_Studio.avi
Формат : AVI
Формат/Информация : Audio Video Interleave
Размер файла : 745 Мбайт
Продолжительность : 1 ч. 13 м.
Общий поток : 1428 Кбит/сек
Программа кодирования : VirtualDubMod 1.5.10.3 | www.virtualdub-fr.org || (build 2550/release)
Библиотека кодирования : VirtualDubMod build 2550/release

Видео
Идентификатор : 0
Формат : MPEG-4 Visual
Профиль формата : Advanced Simple@L5
Параметр BVOP формата : 1
Параметр QPel формата : Нет
Параметр GMC формата : Без точки перехода
Параметр матрицы формата : Выборочная
Идентификатор кодека : XVID
Идентификатор кодека/Подсказка : XviD
Продолжительность : 1 ч. 13 м.
Битрейт : 1226 Кбит/сек
Ширина : 688 пикселей
Высота : 272 пикселя
Соотношение сторон : 2,529
Частота кадров : 25,000 кадров/сек
Цветовое пространство : YUV
Субдискретизация насыщенности : 4:2:0
Битовая глубина : 8 бит
Тип развёртки : Прогрессивная
Метод сжатия : С потерями
Бит/(Пиксели*Кадры) : 0.262
Размер потока : 640 Мбайт (86%)
Библиотека кодирования : XviD 73

Аудио
Идентификатор : 1
Формат : AC-3
Формат/Информация : Audio Coding 3
Расширение режима : CM (complete main)
Параметр Endianness формата : Big
Идентификатор кодека : 2000
Продолжительность : 1 ч. 13 м.
Вид битрейта : Постоянный
Битрейт : 192 Кбит/сек
Каналы : 2 канала
Расположение каналов : Front: L R
Частота : 48,0 КГц
Метод сжатия : С потерями
Размер потока : 100 Мбайт (13%)
Выравнивание : Разделение по промежуткам
Продолжительность промежутка : 40 мс. (1,00 видеокадр)
Время предзагрузки промежутка : 500 мс
pb.wtf



Скачать Он был не один через торрент http://s017.radikal.ru/i402/1510/54/8dfe9f2ef934.png Скачать фильм Он был не один через торрент бесплантно в хорошем качестве Описание:Действие происходит на севере Скандинавии, где гитлеровская Германия старалась удержать свой последний рубеж. Сюда волею ... 10 10 1
Торрент: Зарегистрирован [2015-10-19 09:50] · скачан: 5 раз
Статус: √ проверено
Размер: 745 MB
Как cкачать? Как скачать Он был не один через торрент | qTorrent

% Раздел Тема Автор DL S | L
Кино СССР [ 745 MB ] Он был не один [1969 СССР военный SATRip-AVC от AVP Studio] AVP Studio Скачать
1 | 0


>> Регистрируемся здесь <<






Отзывы и комментарии о схеме читаем и пишем здесь: ---> Отзывы и комментарии о схеме

Новые благодарочки в телеграм довольных пользователей:
скриншот   скриншот   скриншот   скриншот   скриншот
    Дорогой пользователь! Огромная просьба, поблагодарите релизера, оцените раздачу и оставьте свои комментарий, если Вы скачали Он был не один через торрент бесплатно! Внесите свою лепту в развитие PiratBit!
    Комментировать посты могут только пользователи прошедшие не сложную регистрацию
    Показать сообщения:    

    Он был не один через торрент
    Скачать бесплатно Он был не один
    Он был не один скачать торрент
    Он был не один смотреть онлайн
    Cкачать фильм Он был не один бесплатно
    Он был не один скачать торрент в хорошем качестве
    Он был не один смотреть онлайн бесплатно в хорошем качестве


    Вы не можете начинать темы
    Вы не можете отвечать на сообщения
    Вы не можете редактировать свои сообщения
    Вы не можете удалять свои сообщения
    Вы не можете голосовать в опросах
    Вы не можете прикреплять файлы к сообщениям
    Вы можете скачивать файлы