1 сезон

1 сезон

iTunes

1

iTunes

Кинопоиск HD

iTunes

13

1 сезон

RePack

30

Deluxe

ВАЖНО

ИГРА 18+

pack

RePack

MK11
pack

Легкие деньги

RePack

jed

RePack

fifa19

RePack

RDR2

RePack

NEED FOR SPEED™ PAYBACK

4 сезон

9 сезон

Бесстыжие 9 сезон

Все сериалы

все сериалы на PB.wtf

RePack

FAR CRY 5
  
Magnet ссылка

Он был не один (Загид Сабитов) [1969, СССР, военный, SATRip-AVC от AVP Studio] pb.wtf

Он был не один через торрент pb.wtf

Размер: 745 MB | Добавлен: 5 лет 6 мес. назад | Торрент скачан:20 раз
Скачать  

19-10-2015 09:51 Он был не один Скачать торрент  

Он был не один
Страна: СССР
Производство: Узбекфильм

Жанр: военный
Год выпуска: 1969
Продолжительность: 01:13:00

Перевод: Не требуется
Cубтитры: нет
Оригинальная аудиодорожка: русский

Режиссер: Загид Сабитов

В ролях:
Шухрат Иргашев, Рудольф Аллаберт, Михаил Погоржельский, Владислав Стржельчик, Клеон Протасов, Владимир Прохоров, Георгий Шевцов, Олев Эскола, Маури Раус, Олег Глинка...
Полный список актёров

Описание:
Действие происходит на севере Скандинавии, где гитлеровская Германия старалась удержать свой последний рубеж. Сюда волею обстоятельств попадает летчик-штурман узбек Акбар Ибрагимов (Шухрат Эргашев), самолет которого был сбит в бою, и вступает в ряды участников Сопротивления. Вскоре ему удалось пробраться офицером на немецкую подводную лодку и позже сообщать о секретных базах противника.

Источник: DVB
Качество видео: SATRip-AVC
Формат видео: MKV

Видео: 696->1214x480 (2,529:1), 25 fps, H264 ~ 1232 kbps avg, 0.148 bit/pixel
Аудио: 48 kHz, Dolby Digital AC3 2.0, 192 kbps

Раздача от:
Общее
Полное имя : On.byl.ne.odin.1969.SATRip-AVC_[New-team]_by_AVP_Studio.mkv
Формат : Matroska
Версия формата : Version 2
Размер файла : 745 Мбайт
Продолжительность : 1 ч. 13 м.
Общий поток : 1426 Кбит/сек
Дата кодирования : UTC 2015-10-18 18:43:31
Программа кодирования : mkvmerge v6.1.0 ('Old Devil') built on Mar 4 2013 09:10:42
Библиотека кодирования : libebml v1.3.0 + libmatroska v1.4.0

Видео
Идентификатор : 1
Формат : AVC
Формат/Информация : Advanced Video Codec
Профиль формата : High@L4.1
Параметр CABAC формата : Да
Параметр ReFrames формата : 10 кадров
Идентификатор кодека : V_MPEG4/ISO/AVC
Продолжительность : 1 ч. 13 м.
Битрейт : 1232 Кбит/сек
Ширина : 696 пикселей
Высота : 480 пикселей
Соотношение сторон : 2,529
Режим частоты кадров : Постоянный
Частота кадров : 25,000 кадров/сек
Цветовое пространство : YUV
Субдискретизация насыщенности : 4:2:0
Битовая глубина : 8 бит
Тип развёртки : Прогрессивная
Бит/(Пиксели*Кадры) : 0.148
Размер потока : 629 Мбайт (85%)
Библиотека кодирования : x264 core 148 r2597 e86f3a1
Настройки программы : cabac=1 / ref=10 / deblock=1:-2:-1 / analyse=0x3:0x113 / me=umh / subme=10 / psy=1 / psy_rd=1.00:0.00 / mixed_ref=1 / me_range=32 / chroma_me=1 / trellis=2 / 8x8dct=1 / cqm=0 / deadzone=21,11 / fast_pskip=1 / chroma_qp_offset=-2 / threads=6 / lookahead_threads=1 / sliced_threads=0 / nr=0 / decimate=0 / interlaced=0 / bluray_compat=0 / constrained_intra=0 / bframes=8 / b_pyramid=2 / b_adapt=2 / b_bias=0 / direct=3 / weightb=1 / open_gop=0 / weightp=2 / keyint=250 / keyint_min=25 / scenecut=40 / intra_refresh=0 / rc=2pass / mbtree=0 / bitrate=1232 / ratetol=1.0 / qcomp=0.60 / qpmin=0 / qpmax=69 / qpstep=4 / cplxblur=20.0 / qblur=0.5 / ip_ratio=1.40 / pb_ratio=1.30 / aq=1:1.00
Default : Да
Forced : Нет

Аудио
Идентификатор : 2
Формат : AC-3
Формат/Информация : Audio Coding 3
Расширение режима : CM (complete main)
Параметр Endianness формата : Big
Идентификатор кодека : A_AC3
Продолжительность : 1 ч. 13 м.
Вид битрейта : Постоянный
Битрейт : 192 Кбит/сек
Каналы : 2 канала
Расположение каналов : Front: L R
Частота : 48,0 КГц
Метод сжатия : С потерями
Размер потока : 100 Мбайт (13%)
Default : Да
Forced : Нет
pb.wtf



Скачать Он был не один через торрент http://s017.radikal.ru/i402/1510/54/8dfe9f2ef934.png Скачать фильм Он был не один через торрент бесплантно в хорошем качестве Описание:Действие происходит на севере Скандинавии, где гитлеровская Германия старалась удержать свой последний рубеж. Сюда волею ... 10 10 3
Торрент: Зарегистрирован [2015-10-19 09:51] · скачан: 20 раз
Статус: √ проверено
Размер: 745 MB
Как cкачать? Как скачать Он был не один через торрент | UTorrent

% Раздел Тема Автор DL S | L
Кино СССР [ 745 MB ] Он был не один [1969 СССР военный SATRip от AVP Studio] AVP Studio Скачать
1 | 0

28-11-2019 20:33  

Отключить всю рекламу на сайте

    Дорогой пользователь! Огромная просьба, поблагодарите релизера, оцените раздачу и оставьте свои комментарий, если Вы скачали Он был не один через торрент бесплатно! Внесите свою лепту в развитие PiratBit!
    Комментировать посты могут только пользователи прошедшие не сложную регистрацию
    Показать сообщения:    

    Он был не один через торрент
    Скачать бесплатно Он был не один
    Он был не один скачать торрент
    Он был не один смотреть онлайн
    Cкачать фильм Он был не один бесплатно
    Он был не один скачать торрент в хорошем качестве
    Он был не один смотреть онлайн бесплатно в хорошем качестве


    Вы не можете начинать темы
    Вы не можете отвечать на сообщения
    Вы не можете редактировать свои сообщения
    Вы не можете удалять свои сообщения
    Вы не можете голосовать в опросах
    Вы не можете прикреплять файлы к сообщениям
    Вы можете скачивать файлы