новый адрес пиратбит piratbit
Мега распродажа FORZA HORIZON 4 ULTIMATE+ВСЕ DLC+ОНЛАЙН всего за 499р. 349 руб. (супер цена). Внимание количество ограничено!!!

iTunes

1+1

iTunes

мы

iTunes

1

iTunes

Чернобыль

iTunes

Ральф против интернета

Лицензия

ПШазам

Лицензия

Игра престолов

Лицензия

30
pack

ВАЖНО

!!Акция!!

Alien_RageХит недели

RePack

Resident Evil 21

ИГРА 18+

pack

RePack

Metro:Exodus

!!Акция!!

Alien_Rage

RePack

fifa19

RePack

Assassins Creed: Odyssey

RePack

NEED FOR SPEED™ PAYBACK

3 сезон

9 сезон

Бесстыжие 9 сезон

Все сериалы

все сериалы на PB.wtf

RePack

FAR CRY 5
Ребята, катастрофически не хватает 1900р. для оплаты серверов за Октябрь (всвязи с блокировками трафик упал в 3 раза), 1-2р., выручайте.
  

О тех, кого помню и люблю (Наталья Трощенко, Анатолий Вехотко) [1973, СССР, драма, военный, SATRip от AVP Studio] pb.wtf

О тех, кого помню и люблю через торрент pb.wtf

Размер: 745 MB | Добавлен: 4 года назад | Торрент скачан:13 раз
Скачать  

19-10-2015 09:54 О тех, кого помню и люблю Скачать торрент  

О тех, кого помню и люблю
Страна: СССР
Производство: Ленфильм

Жанр: драма, военный
Год выпуска: 1973
Продолжительность: 01:13:00

Перевод: Не требуется
Cубтитры: нет
Оригинальная аудиодорожка: русский

Режиссер: Наталья Трощенко, Анатолий Вехотко

В ролях:
Валерий Золотухин, Екатерина Васильева, Виктория Фёдорова, Евгения Сабельникова, Виолетта Жухимович, Надежда Карпушина, Людмила Старицына, Артём Иноземцев, Дагун Омаев...
Полный список актёров

Описание:
Героическая драма по документальной повести П. Заводчикова и С. Самойлова «Девичья команда».
Фильм, основанный на реальных событиях Великой Отечественной войны, рассказывает о командире саперного женского батальона (Валерий Золотухин) и шести девушках.

Источник: DVB
Качество видео: SATRip
Формат видео: AVI

Видео: 704x304 (2,35:1), 25 fps, XviD ~ 1169 kbps avg, 0.219 bit/pixel
Аудио: 48 kHz, Dolby Digital AC3 2.0, 192 kbps

Раздача от:
Общее
Полное имя : O.teh,kogo.pomnyu.i.lyublyu.1973.SATRip_[New-team]_by_AVP_Studio.avi
Формат : AVI
Формат/Информация : Audio Video Interleave
Размер файла : 745 Мбайт
Продолжительность : 1 ч. 15 м.
Общий поток : 1371 Кбит/сек
Программа кодирования : VirtualDubMod 1.5.10.3 | www.virtualdub-fr.org || (build 2550/release)
Библиотека кодирования : VirtualDubMod build 2550/release

Видео
Идентификатор : 0
Формат : MPEG-4 Visual
Профиль формата : Advanced Simple@L5
Параметр BVOP формата : 1
Параметр QPel формата : Нет
Параметр GMC формата : Без точки перехода
Параметр матрицы формата : Выборочная
Идентификатор кодека : XVID
Идентификатор кодека/Подсказка : XviD
Продолжительность : 1 ч. 15 м.
Битрейт : 1169 Кбит/сек
Ширина : 704 пикселя
Высота : 304 пикселя
Соотношение сторон : 2,35:1
Частота кадров : 25,000 кадров/сек
Цветовое пространство : YUV
Субдискретизация насыщенности : 4:2:0
Битовая глубина : 8 бит
Тип развёртки : Прогрессивная
Метод сжатия : С потерями
Бит/(Пиксели*Кадры) : 0.219
Размер потока : 635 Мбайт (85%)
Библиотека кодирования : XviD 73

Аудио
Идентификатор : 1
Формат : AC-3
Формат/Информация : Audio Coding 3
Расширение режима : CM (complete main)
Параметр Endianness формата : Big
Идентификатор кодека : 2000
Продолжительность : 1 ч. 15 м.
Вид битрейта : Постоянный
Битрейт : 192 Кбит/сек
Каналы : 2 канала
Расположение каналов : Front: L R
Частота : 48,0 КГц
Метод сжатия : С потерями
Размер потока : 104 Мбайт (14%)
Выравнивание : Разделение по промежуткам
Продолжительность промежутка : 40 мс. (1,00 видеокадр)
Время предзагрузки промежутка : 500 мс
pb.wtf



Скачать О тех, кого помню и люблю через торрент http://s018.radikal.ru/i525/1510/27/4734e46d94c2.png Скачать фильм О тех, кого помню и люблю через торрент бесплантно в хорошем качестве Описание:Героическая драма по документальной повести П. Заводчикова и С. Самойлова «Девичья команда».Фильм, основанный на реальных событиях ... 10 10 1
Торрент: Зарегистрирован [2015-10-19 09:54] · скачан: 13 раз
Статус: √ проверено
Размер: 745 MB
Как cкачать? Как скачать О тех, кого помню и люблю через торрент | qTorrent

% Раздел Тема Автор DL S | L
Кино СССР [ 744 MB ] О тех кого помню и люблю [1973 СССР военный SATRip-AVC от AVP Studio] AVP Studio Скачать
1 | 0


>> Регистрируемся здесь <<






Отзывы и комментарии о схеме читаем и пишем здесь: ---> Отзывы и комментарии о схеме

Новые благодарочки в телеграм довольных пользователей:
скриншот   скриншот   скриншот   скриншот   скриншот
    Дорогой пользователь! Огромная просьба, поблагодарите релизера, оцените раздачу и оставьте свои комментарий, если Вы скачали О тех, кого помню и люблю через торрент бесплатно! Внесите свою лепту в развитие PiratBit!
    Комментировать посты могут только пользователи прошедшие не сложную регистрацию
    Показать сообщения:    

    О тех, кого помню и люблю через торрент
    Скачать бесплатно О тех, кого помню и люблю
    О тех, кого помню и люблю скачать торрент
    О тех, кого помню и люблю смотреть онлайн
    Cкачать фильм О тех, кого помню и люблю бесплатно
    О тех, кого помню и люблю скачать торрент в хорошем качестве
    О тех, кого помню и люблю смотреть онлайн бесплатно в хорошем качестве


    Вы не можете начинать темы
    Вы не можете отвечать на сообщения
    Вы не можете редактировать свои сообщения
    Вы не можете удалять свои сообщения
    Вы не можете голосовать в опросах
    Вы не можете прикреплять файлы к сообщениям
    Вы можете скачивать файлы