Ссылка на приватное зеркало всего за 1$. Внимание количество ограничено!!!

iTunes

iTunes

iTunes

1

iTunes

iTunes

iTunes

iTunes

iTunes

30
pack

$ от Little Big

ВАЖНО

!!Акция!!

Alien_RageХит недели

RePack

Resident Evil 21

ИГРА 18+

pack

RePack

jed

!!Акция!!

Alien_Rage

RePack

fifa19

RePack

Assassins Creed: Odyssey

RePack

NEED FOR SPEED™ PAYBACK

4 сезон

9 сезон

Бесстыжие 9 сезон

Все сериалы

все сериалы на PB.wtf

RePack

FAR CRY 5
  

Зеленый ад / The Green Inferno (Элай Рот) [2013, ужасы, приключения, WEB-DL 720p, Любительский (одноголосый) [xixidok] pb.wtf

Зеленый ад через торрент pb.wtf

Размер: 3.31 GB | Добавлен: 4 года 8 мес. назад | Торрент скачан:373 раза
Скачать  

20-10-2015 07:24 Зеленый ад Скачать торрент  

Зеленый ад / The Green Inferno«Страх сожрет тебя»

  • Год выхода: 2013
  • Жанр: ужасы, приключения

  • Страна: Чили, США
  • Продолжительность: 01:40:38
  • Перевод: Любительский (одноголосый) [xixidok]
  • Автор перевода: Enigma
  • Режиссер: Элай Рот
  • В ролях:

    Лоренца Иззо (Justine), Ариэль Леви (Alejandro), Дэрил Сабара (Lars), Кирби Блисс Блэнтон (Amy), Магда Апанович (Samantha), Скай Феррейра (Kaycee), Николас Мартинез (Daniel), Аарон Барнс (Jonah), Игнасия Алламанд (Kara), Рамон Льяо (The Bald Headhunter), Ричард Берджи (Charles), Матиас Лопез (Carlos)


  • Группа студентов и активистов путешествует по Амазонке, их цель - спасти вымирающее племя коренных жителей сельвы. Но авиакатастрофа рушит их планы - студенты становятся заложниками племени людоедов, которое они так защищали.

  • Качество: WEB-DL 720p
  • Формат: MKV
  • Видео кодек: AVC
  • Аудио кодек: AC3
  • Видео: AVC, 1280x532 (2.40:1), 4046 kbps, 23,976 fps, 0,248 bpp
  • Аудио №1: русский / AC3 / 2.0 / 44 kHz / 192 kbps / 16 bit |VO, xixidok|
  • Аудио №2: английский / AC3 / 5.1 / 48 kHz / 384 kbps / 16 bit
  • Навигация по главам: есть
    Видеоряд: RARBG
    За дорожку xixidok (аудио № 1) спасибо и

    Код:

    General
    Unique ID                                : 176527779484546987282320320928613038954 (0x84CE037EBBBD5E71A3A7805675227B6A)
    Complete name                            : H:\The.Green.Inferno.2013.720p.WEB-DL.DD5.1.H264.mkv
    Format                                   : Matroska
    Format version                           : Version 4 / Version 2
    File size                                : 3.31 GiB
    Duration                                 : 1h 40mn
    Overall bit rate                         : 4 716 Kbps
    Movie name                               : RARBG.COM - The.Green.Inferno.2013.720p.WEB-DL.DD5.1.H264-RARBG
    Encoded date                             : UTC 2015-10-20 07:06:57
    Writing application                      : mkvmerge v8.3.0 ('Over the Horizon') 64bit
    Writing library                          : libebml v1.3.1 + libmatroska v1.4.2
    DURATION                                 : 01:40:32.000000000
    NUMBER_OF_FRAMES                         : 188500
    NUMBER_OF_BYTES                          : 289536000
    _STATISTICS_WRITING_APP                  : mkvmerge v8.3.0 ('Over the Horizon') 64bit
    _STATISTICS_WRITING_DATE_UTC             : 2015-10-20 07:06:57
    _STATISTICS_TAGS                         : BPS DURATION NUMBER_OF_FRAMES NUMBER_OF_BYTES

    Video
    ID                                       : 1
    Format                                   : AVC
    Format/Info                              : Advanced Video Codec
    Format profile                           : Main@L3.1
    Format settings, CABAC                   : No
    Format settings, ReFrames                : 2 frames
    Codec ID                                 : V_MPEG4/ISO/AVC
    Duration                                 : 1h 40mn
    Bit rate                                 : 4 046 Kbps
    Width                                    : 1 280 pixels
    Height                                   : 532 pixels
    Display aspect ratio                     : 2.40:1
    Frame rate                               : 23.976 fps
    Color space                              : YUV
    Chroma subsampling                       : 4:2:0
    Bit depth                                : 8 bits
    Scan type                                : Progressive
    Bits/(Pixel*Frame)                       : 0.248
    Stream size                              : 2.84 GiB (86%)
    Title                                    : The.Green.Inferno.2013.720p.WEB-DL.DD5.1.H264-RARBG
    Language                                 : English
    Default                                  : Yes
    Forced                                   : No
    Color primaries                          : BT.709-5, BT.1361, IEC 61966-2-4, SMPTE RP177
    Transfer characteristics                 : BT.709-5, BT.1361
    Matrix coefficients                      : BT.709-5, BT.1361, IEC 61966-2-4 709, SMPTE RP177

    Audio #1
    ID                                       : 2
    Format                                   : AC-3
    Format/Info                              : Audio Coding 3
    Mode extension                           : CM (complete main)
    Codec ID                                 : A_AC3
    Duration                                 : 1h 40mn
    Bit rate mode                            : Constant
    Bit rate                                 : 192 Kbps
    Channel(s)                               : 2 channels
    Channel positions                        : Front: L R
    Sampling rate                            : 44.1 KHz
    Bit depth                                : 16 bits
    Compression mode                         : Lossy
    Stream size                              : 138 MiB (4%)
    Title                                    : VO, xixidok
    Language                                 : Russian
    Default                                  : Yes
    Forced                                   : No

    Audio #2
    ID                                       : 3
    Format                                   : AC-3
    Format/Info                              : Audio Coding 3
    Mode extension                           : CM (complete main)
    Codec ID                                 : A_AC3
    Duration                                 : 1h 40mn
    Bit rate mode                            : Constant
    Bit rate                                 : 384 Kbps
    Channel(s)                               : 6 channels
    Channel positions                        : Front: L C R, Side: L R, LFE
    Sampling rate                            : 48.0 KHz
    Bit depth                                : 16 bits
    Compression mode                         : Lossy
    Stream size                              : 276 MiB (8%)
    Title                                    : Original
    Language                                 : English
    Default                                  : No
    Forced                                   : No

    Menu
    00:00:00.000                             : en:Chapitre 01
    00:10:00.000                             : en:Chapitre 02
    00:20:00.000                             : en:Chapitre 03
    00:30:00.000                             : en:Chapitre 04
    00:40:00.000                             : en:Chapitre 05
    00:50:00.000                             : en:Chapitre 06
    01:00:00.000                             : en:Chapitre 07
    01:10:00.000                             : en:Chapitre 08
    01:20:00.000                             : en:Chapitre 09
    01:30:00.000                             : en:Chapitre 10

    Скриншоты:


    © Оформление by -Lexx- pb.wtf



  • Скачать Зеленый ад через торрент http://pic.kartinco.top/images/6/stazu.jpg Скачать фильм Зеленый ад через торрент бесплантно в хорошем качестве qw.png Группа студентов и активистов путешествует по Амазонке, их цель - спасти вымирающее племя коренных жителей сельвы. Но ... 8.6 10 16
    Торрент: Зарегистрирован [2015-10-20 07:24] · скачан: 373 раз
    Статус: √ проверено
    Размер: 3.31 GB
    Как cкачать? Как скачать Зеленый ад через торрент | qTorrent

    % Раздел Тема Автор DL S | L
    Фильмы 2013 (Звук TS, Cam, VO, DVO) [ 1.37 GB ] Зеленый ад / The Green Inferno [2013 WEB-DLRip] Любительский [xixidok] -Lexx- Скачать
    1 | 0
    Фильмы без перевода [ 1.4 GB ] Зеленый ад / The Green Inferno [2013 HDRip] PROCTOLOG Скачать
    1 | 1


    Последний раз редактировалось: -Lexx- (2015-10-20 07:41), всего редактировалось 1 раз

    28-11-2019 20:33  

    Отключить всю рекламу на сайте

    20-10-2015 07:39 Зеленый ад Скачать торрент  

    А вот чувак под № 8 из фотогалереи актёров этого фильма-он похоже,по жизни из ада не вылазит.Судя по выражению его лица roflpb.wtf



    20-10-2015 13:58 Зеленый ад Скачать торрент  

    Stopper68 писал(а):

    А вот чувак под № 8 из фотогалереи актёров этого фильма-он похоже,по жизни из ада не вылазит.Судя по выражению его лица rofl

    Чё?его даже не гримируют?pb.wtf



    21-10-2015 19:46 Зеленый ад Скачать торрент  

    давно на эту тему не снимали. я про амазонку)pb.wtf



    25-10-2015 06:41 Зеленый ад Скачать торрент  

    а мне девочка под номером 4 понравилась - классная блондиночка! обожаю такой женский типажpb.wtf



    29-10-2015 14:26 Зеленый ад Скачать торрент  

    уже начинаю смотреть-посморел-фильм очень даже хорош для любителей жанра-там и приключения-все зеленое красивое-за каннибалов смотрел последний раз лет 25 назад-все здорово-если -если бы сам снимал-то насовал бы в такую красивую природу еще бы сцены с большими анакондами-крокодайлами и огромными амазонскими паучками-тода бы ваще фильм бы получился-огонь просто-ну и побольше жести бы добавить-жанр заставляетpb.wtf





    Последний раз редактировалось: sasha1966 (2015-10-30 14:21), всего редактировалось 4 раз(а)

    30-10-2015 11:38 Зеленый ад Скачать торрент  

    довольно неплохой фильмец.
    идея интересная и снято порой очень правдоподобно-как бедолаге руки-ноги отрудили заживо, ну очень жёстко вышло...pb.wtf



      Дорогой пользователь! Огромная просьба, поблагодарите релизера, оцените раздачу и оставьте свои комментарий, если Вы скачали Зеленый ад через торрент бесплатно! Внесите свою лепту в развитие PiratBit!
      Комментировать посты могут только пользователи прошедшие не сложную регистрацию
      Показать сообщения:    

      Зеленый ад через торрент
      Скачать бесплатно Зеленый ад
      Зеленый ад скачать торрент
      Зеленый ад смотреть онлайн
      Cкачать фильм Зеленый ад бесплатно
      Зеленый ад скачать торрент в хорошем качестве
      Зеленый ад смотреть онлайн бесплатно в хорошем качестве


      Вы не можете начинать темы
      Вы не можете отвечать на сообщения
      Вы не можете редактировать свои сообщения
      Вы не можете удалять свои сообщения
      Вы не можете голосовать в опросах
      Вы не можете прикреплять файлы к сообщениям
      Вы можете скачивать файлы