Ссылка на приватное зеркало нашего сайта всего за 1$. Внимание количество ограничено!!!

2 сезон

iTunes

1 сезон

1

iTunes

iTunes

iTunes

1 сезон

RePack

30

ИГРА 18+

pack

ВАЖНО

!!Акция!!

Alien_RageХит недели

RePack

MK11
pack

Забери бонус

RePack

jed

!!Акция!!

Alien_Rage

RePack

fifa19

RePack

Assassins Creed: Odyssey

RePack

NEED FOR SPEED™ PAYBACK

4 сезон

9 сезон

Бесстыжие 9 сезон

Все сериалы

все сериалы на PB.wtf

RePack

FAR CRY 5
  

Дневники няни / The Nanny Diaries (Шари Спрингер Берман, Роберт Пульчини) [2007, драма, мелодрама, комедия, BDRip 720p by msltel] DUB pb.wtf

Дневники няни через торрент pb.wtf

Размер: 4.46 GB | Добавлен: 4 года 11 мес. назад | Торрент скачан:66 раз
Скачать  

20-10-2015 09:07 Дневники няни Скачать торрент  

Название: Дневники няни
Оригинальное название: The Nanny Diaries
Год выпуска: 2007
Страна: США
Жанр: драма, мелодрама, комедия
Продолжительность: 01:44:41
Перевод: дублированный

Режиссёр: Шари Спрингер Берман, Роберт Пульчини

В ролях: Скарлетт Йоханссон, Лора Линни, Алишиа Кис, Крис Эванс, Донна Мёрфи, Брэнди Родерик, Нина Гарбирас, Джудит Робертс, Элисон Райт, Хезер Симмс, Пол Джаматти, Николас Арт, Натан Кордри, Кэйди Хаффман, Джорджина Чэпман

Описание: Молодая студентка колледжа из рабочего класса, устраиваясь подработать няней в одну из богатых семей в Манхэттэне, никак не могла предвидеть, какими сложностями всё это для неё обернётся. Изнеженная жена, вечно где-то пропадающий муж и донельзя избалованный шестилетний ребёнок постоянно становятся источниками проблем для неё. В течение девятимесячного периода её пребывания в доме отношения супругов всё больше и больше осложняются, а самой няне приходится справляться со своими учебными занятиями, семейными проблемами работодателей, собственным романтическим увлечением и избалованным малышом...



Качество: BDRip 720p Сравнение с исходником
Формат: MKV
Видео: MPEG-4 AVC, 5075 Kбит/с, 1280x720, 23,976 кадра/с
Аудио 1: русский, AC3, 448 kbps, 6 ch, 48 kHz [дублированный]
Аудио 2: английский, AC3, 448 kbps, 6 ch, 48 kHz [оригинал]
Субтитры 1: русские
Субтитры 2: английские
Общее
Уникальный идентификатор : 205252276257017679648800569753897992143 (0x9A6A26872607248486D767A5DF82FFCF)
Полное имя : D:VideoДневники няни.2007.BDRip.720p.mkv
Формат : Matroska
Версия формата : Version 4 / Version 2
Размер файла : 4,46 Гбайт
Продолжительность : 1 ч. 44 м.
Общий поток : 6092 Кбит/сек
Название фильма : BDRip -- STarankov
Дата кодирования : UTC 2015-10-20 07:09:56
Программа кодирования : mkvmerge v8.2.0 ('World of Adventure') 64bit
Библиотека кодирования : libebml v1.3.1 + libmatroska v1.4.2
DURATION : 01:43:50.522000000
NUMBER_OF_FRAMES : 1951
NUMBER_OF_BYTES : 63863
_STATISTICS_WRITING_APP : mkvmerge v8.2.0 ('World of Adventure') 64bit
_STATISTICS_WRITING_DATE_UTC : 2015-10-20 07:09:56
_STATISTICS_TAGS : BPS DURATION NUMBER_OF_FRAMES NUMBER_OF_BYTES

Видео
Идентификатор : 1
Формат : AVC
Формат/Информация : Advanced Video Codec
Профиль формата : High@L4.1
Параметр CABAC формата : Да
Параметр ReFrames формата : 9 кадров
Идентификатор кодека : V_MPEG4/ISO/AVC
Продолжительность : 1 ч. 44 м.
Битрейт : 5075 Кбит/сек
Ширина : 1280 пикселей
Высота : 720 пикселей
Соотношение сторон : 16:9
Режим частоты кадров : Постоянный
Частота кадров : 23,976 кадра/сек
Цветовое пространство : YUV
Субдискретизация насыщенности : 4:2:0
Битовая глубина : 8 бит
Тип развёртки : Прогрессивная
Бит/(Пиксели*Кадры) : 0.230
Размер потока : 3,71 Гбайт (83%)
Библиотека кодирования : x264 core 146 r2538 121396c
Настройки программы : cabac=1 / ref=9 / deblock=1:-2:-2 / analyse=0x3:0x113 / me=umh / subme=10 / psy=1 / psy_rd=1.00:0.15 / mixed_ref=1 / me_range=32 / chroma_me=1 / trellis=2 / 8x8dct=1 / cqm=0 / deadzone=21,11 / fast_pskip=1 / chroma_qp_offset=-3 / threads=6 / lookahead_threads=1 / sliced_threads=0 / nr=0 / decimate=1 / interlaced=0 / bluray_compat=0 / constrained_intra=0 / bframes=8 / b_pyramid=2 / b_adapt=2 / b_bias=0 / direct=1 / weightb=1 / open_gop=0 / weightp=2 / keyint=230 / keyint_min=23 / scenecut=40 / intra_refresh=0 / rc_lookahead=40 / rc=crf / mbtree=0 / crf=18.6 / qcomp=0.60 / qpmin=0 / qpmax=69 / qpstep=4 / vbv_maxrate=40000 / vbv_bufsize=50000 / crf_max=0.0 / nal_hrd=none / filler=0 / ip_ratio=1.40 / pb_ratio=1.30 / aq=1:1.00
Язык : English
Default : Да
Forced : Нет
DURATION : 01:44:41.442000000
NUMBER_OF_FRAMES : 150604
NUMBER_OF_BYTES : 4078300227
_STATISTICS_WRITING_APP : mkvmerge v8.2.0 ('World of Adventure') 64bit
_STATISTICS_WRITING_DATE_UTC : 2015-10-20 07:09:56
_STATISTICS_TAGS : BPS DURATION NUMBER_OF_FRAMES NUMBER_OF_BYTES

Аудио #1
Идентификатор : 2
Формат : AC-3
Формат/Информация : Audio Coding 3
Расширение режима : CM (complete main)
Параметр Endianness формата : Big
Идентификатор кодека : A_AC3
Продолжительность : 1 ч. 44 м.
Вид битрейта : Постоянный
Битрейт : 448 Кбит/сек
Каналы : 6 каналов
Расположение каналов : Front: L C R, Side: L R, LFE
Частота : 48,0 КГц
Метод сжатия : С потерями
Размер потока : 335 Мбайт (7%)
Заголовок : DUB
Язык : Russian
Default : Да
Forced : Нет

Аудио #2
Идентификатор : 3
Формат : AC-3
Формат/Информация : Audio Coding 3
Расширение режима : CM (complete main)
Параметр Endianness формата : Big
Идентификатор кодека : A_AC3
Продолжительность : 1 ч. 44 м.
Вид битрейта : Постоянный
Битрейт : 448 Кбит/сек
Каналы : 6 каналов
Расположение каналов : Front: L C R, Side: L R, LFE
Частота : 48,0 КГц
Метод сжатия : С потерями
Размер потока : 335 Мбайт (7%)
Заголовок : Original
Язык : English
Default : Нет
Forced : Нет

Текст #1
Идентификатор : 4
Формат : UTF-8
Идентификатор кодека : S_TEXT/UTF8
Идентификатор кодека/Информация : UTF-8 Plain Text
Заголовок : русский
Язык : Russian
Default : Нет
Forced : Нет

Текст #2
Идентификатор : 5
Формат : UTF-8
Идентификатор кодека : S_TEXT/UTF8
Идентификатор кодека/Информация : UTF-8 Plain Text
Заголовок : английский
Default : Нет
Forced : Нет
pb.wtf



Скачать Дневники няни через торрент http://i67.fastpic.ru/big/2015/1020/90/555cef5420ca5569f045a1a09bfcc290.png Скачать фильм Дневники няни через торрент бесплантно в хорошем качестве Описание: Молодая студентка колледжа из рабочего класса, устраиваясь подработать няней в одну из богатых семей в Манхэттэне, никак не могла ... 8.5 10 4
Торрент: Зарегистрирован [2015-10-20 09:07] · скачан: 66 раз
Статус: √ проверено
Размер: 4.46 GB
Как cкачать? Как скачать Дневники няни через торрент | qTorrent

% Раздел Тема Автор DL S | L
Фильмы [HD 720p, 1080p] (Хороший звук DUB, MVO) [ 12.27 GB ] Дневники няни / The Nanny Diaries [2007 BDRip 1080p by msltel] DUB msltel Скачать
1 | 0
Фильмы 2006-2008 [ 2.66 GB ] Дневники няни / The Nanny Diaries [2007 BDRip AVC by msltel] DUB msltel Скачать
1 | 0
Фильмы 2006-2008 [ 2.18 GB ] Дневники няни / The Nanny Diaries [2007 HDRip DUB + Оригинал] lev1244v Скачать
1 | 0

28-11-2019 20:33  

Отключить всю рекламу на сайте

20-10-2015 09:44 Дневники няни Скачать торрент  

не плохое кино кстати!) йохансон молодая)pb.wtf



    Дорогой пользователь! Огромная просьба, поблагодарите релизера, оцените раздачу и оставьте свои комментарий, если Вы скачали Дневники няни через торрент бесплатно! Внесите свою лепту в развитие PiratBit!
    Комментировать посты могут только пользователи прошедшие не сложную регистрацию
    Показать сообщения:    

    Дневники няни через торрент
    Скачать бесплатно Дневники няни
    Дневники няни скачать торрент
    Дневники няни смотреть онлайн
    Cкачать фильм Дневники няни бесплатно
    Дневники няни скачать торрент в хорошем качестве
    Дневники няни смотреть онлайн бесплатно в хорошем качестве


    Вы не можете начинать темы
    Вы не можете отвечать на сообщения
    Вы не можете редактировать свои сообщения
    Вы не можете удалять свои сообщения
    Вы не можете голосовать в опросах
    Вы не можете прикреплять файлы к сообщениям
    Вы можете скачивать файлы