Ссылка на приватное зеркало нашего сайта всего за 1$. Внимание количество ограничено!!!

2 сезон

iTunes

1 сезон

1

iTunes

iTunes

iTunes

1 сезон

RePack

30

ИГРА 18+

pack

ВАЖНО

!!Акция!!

Alien_RageХит недели

RePack

MK11
pack

Забери бонус

RePack

jed

!!Акция!!

Alien_Rage

RePack

fifa19

RePack

Assassins Creed: Odyssey

RePack

NEED FOR SPEED™ PAYBACK

4 сезон

9 сезон

Бесстыжие 9 сезон

Все сериалы

все сериалы на PB.wtf

RePack

FAR CRY 5
  

Наркотик / Dope (Рик Фамуйива) [2015, драма, комедия, криминал, BDRip 1080p] Профессиональный многоголосый [iTunes] pb.wtf

Наркотик через торрент pb.wtf

Размер: 7.71 GB | Добавлен: 4 года 10 мес. назад | Торрент скачан:194 раза
Скачать  

20-10-2015 17:59 Наркотик Скачать торрент  

Наркотик / Dope«It's hard out here for a geek»

  • Год выхода: 2015
  • Жанр: драма, комедия, криминал

  • Страна: США
  • Продолжительность: 01:43:18
  • Перевод: Профессиональный многоголосый [iTunes]
  • Cубтитры: английские
  • Режиссер: Рик Фамуйива
  • В ролях:

    Раким Мэйерс (Dom), Блейк Андерсон (Will Sherwood), Брюс Битти (Mr. Bailey), Де’андре Бондс (Stacey), Джулиан Брэнд (Mario), Куинси Браун (Jaleel), Кирси Клемонс (Diggy), Кимберли Элиз (Lisa Hayes), Рик Фокс (Councilman Blackmon), Кристофер Гленн (Crip 1), Эймин Джозеф (The Voice), Рики Харрис (Tannehill James)


  • В центре истории подросток, мечтающий учиться в Гарварде, однако живет он в преступном районе Инглвуда, откуда выбраться не так уж и просто.

  • Качество: BDRip 1080p
  • Формат: MKV
  • Видео кодек: AVC
  • Аудио кодек: AC3
  • Видео: AVC, 1920x800 (2.40:1), 9665 kbps, 23,976 fps, 0,262 bpp
  • Аудио №1: русский / AC3 / 5.1 / 48 kHz / 384 kbps / 16 bit |MVO|
  • Аудио №2: английский / AC3 / 5.1 / 48 kHz / 640 kbps / 16 bit
  • Навигация по главам: есть
  • Релиз от: thx: V_ad

    Код:

    x264 [info]: frame I:1310 Avg QP:15.04 size:234420
    x264 [info]: frame P:29479 Avg QP:17.52 size: 91625
    x264 [info]: frame B:117824 Avg QP:19.16 size: 38009
    x264 [info]: consecutive B-frames: 1.5% 1.3% 6.0% 13.8% 16.3% 51.2% 7.1% 1.2% 0.9% 0.8%
    *********************************************************************************************************
    Формат : Matroska
    Версия формата : Version 2
    Размер файла : 7,71 Гбайт
    Продолжительность : 1 ч. 43 м.
    Общий поток : 10,7 Мбит/сек
    Название фильма : ~V ad~
    Дата кодирования : UTC 2015-11-22 20:54:23
    Программа кодирования : mkvmerge v6.5.0 ('Isn't she lovely') built on Oct 20 2013 12:50:05
    Библиотека кодирования : libebml v1.3.0 + libmatroska v1.4.1

    Видео
    Идентификатор : 1
    Формат : AVC
    Формат/Информация : Advanced Video Codec
    Профиль формата : High@L4.1
    Параметр CABAC формата : Да
    Параметр ReFrames формата : 5 кадров
    Идентификатор кодека : V_MPEG4/ISO/AVC
    Продолжительность : 1 ч. 43 м.
    Битрейт : 9665 Кбит/сек
    Ширина : 1920 пикселей
    Высота : 800 пикселей
    Соотношение сторон : 2,40:1
    Режим частоты кадров : Постоянный
    Частота кадров : 23,976 кадра/сек
    Цветовое пространство : YUV
    Субдискретизация насыщенности : 4:2:0
    Битовая глубина : 8 бит
    Тип развёртки : Прогрессивная
    Бит/(Пиксели*Кадры) : 0.262
    Размер потока : 6,82 Гбайт (88%)
    Заголовок : ~V~
    Библиотека кодирования : x264 core 148 r2579+50 65f745f t_mod_Custom [8-bit@all X86_64]
    Настройки программы : cabac=1 / ref=5 / deblock=1:-3:-3 / analyse=0x3:0x133 / me=umh / subme=11 / psy=1 / fade_compensate=0.00 / psy_rd=1.05:0.00 / mixed_ref=1 / me_range=32 / chroma_me=1 / trellis=2 / 8x8dct=1 / cqm=0 / deadzone=21,11 / fast_pskip=0 / chroma_qp_offset=-2 / threads=12 / lookahead_threads=1 / sliced_threads=0 / nr=0 / decimate=0 / interlaced=0 / bluray_compat=0 / constrained_intra=0 / fgo=0 / bframes=9 / b_pyramid=2 / b_adapt=2 / b_bias=0 / direct=3 / weightb=1 / open_gop=0 / weightp=2 / keyint=240 / keyint_min=23 / scenecut=40 / intra_refresh=0 / rc=2pass / mbtree=0 / bitrate=9665 / ratetol=1.0 / qcomp=0.60 / qpmin=0:0:0 / qpmax=69:69:69 / qpstep=4 / cplxblur=20.0 / qblur=0.5 / ip_ratio=1.40 / pb_ratio=1.30 / aq=1:0.70 / aq-sensitivity=11.00 / aq-factor=1.00:1.00:1.00 / aq2=1:0.60 / aq2-sensitivity=13.00 / aq2-factor=1.00:1.00:1.00 / aq3=1:[0.60:0.60]:[0.60:0.60]:[0.60:0.60]:[0.60:0.60] / aq3-sensitivity=9.00 / aq3-factor=[1.00:1.00]:[1.00:1.00]:[1.00:1.00] / aq3-boundary=192:64:24
    Язык : English
    Default : Да
    Forced : Нет

    Аудио #1
    Идентификатор : 2
    Формат : AC-3
    Формат/Информация : Audio Coding 3
    Расширение режима : CM (complete main)
    Параметр Endianness формата : Big
    Идентификатор кодека : A_AC3
    Продолжительность : 1 ч. 43 м.
    Вид битрейта : Постоянный
    Битрейт : 384 Кбит/сек
    Каналы : 6 каналов
    Расположение каналов : Front: L C R, Side: L R, LFE
    Частота : 48,0 КГц
    Метод сжатия : С потерями
    Размер потока : 284 Мбайт (4%)
    Язык : Russian
    Default : Да
    Forced : Нет

    Аудио #2
    Идентификатор : 3
    Формат : AC-3
    Формат/Информация : Audio Coding 3
    Расширение режима : CM (complete main)
    Параметр Endianness формата : Big
    Идентификатор кодека : A_AC3
    Продолжительность : 1 ч. 43 м.
    Вид битрейта : Постоянный
    Битрейт : 640 Кбит/сек
    Каналы : 6 каналов
    Расположение каналов : Front: L C R, Side: L R, LFE
    Частота : 48,0 КГц
    Метод сжатия : С потерями
    Размер потока : 473 Мбайт (6%)
    Язык : English
    Default : Нет
    Forced : Нет

    Текст
    Идентификатор : 4
    Формат : UTF-8
    Идентификатор кодека : S_TEXT/UTF8
    Идентификатор кодека/Информация : UTF-8 Plain Text
    Язык : English
    Default : Нет
    Forced : Нет

    Меню
    00:00:00.000 : en:Chapter 01
    00:06:03.738 : en:Chapter 02
    00:09:34.532 : en:Chapter 03
    00:15:05.362 : en:Chapter 04
    00:19:57.404 : en:Chapter 05
    00:24:38.977 : en:Chapter 06
    00:27:59.678 : en:Chapter 07
    00:32:43.503 : en:Chapter 08
    00:37:22.782 : en:Chapter 09
    00:41:45.252 : en:Chapter 10
    00:46:18.025 : en:Chapter 11
    00:52:19.261 : en:Chapter 12
    00:59:15.426 : en:Chapter 13
    01:04:28.781 : en:Chapter 14
    01:09:18.654 : en:Chapter 15
    01:14:49.109 : en:Chapter 16
    01:20:27.030 : en:Chapter 17
    01:25:07.143 : en:Chapter 18
    01:31:30.818 : en:Chapter 19
    01:38:09.133 : en:Chapter 20

    Скриншоты:


    © Оформление by -Lexx- pb.wtf



  • Скачать Наркотик через торрент http://pic.kartinco.top/images/6/stazu.jpg Скачать фильм Наркотик через торрент бесплантно в хорошем качестве qw.png В центре истории подросток, мечтающий учиться в Гарварде, однако живет он в преступном районе Инглвуда, откуда выбраться не так уж ... 10 10 14
    Торрент: Зарегистрирован [2015-11-23 15:48] · скачан: 194 раз
    Статус: √ проверено
    Размер: 7.71 GB
    Как cкачать? Как скачать Наркотик через торрент | qTorrent

    % Раздел Тема Автор DL S | L
    Фильмы 2015 [DVDrip, WEB-DLRip, HDrip] [ 2.14 GB ] Наркотик / Dope [2015 BDRip-AVC] MVO potroks Скачать
    1 | 0
    Фильмы 2015 [DVDrip, WEB-DLRip, HDrip] [ 1.37 GB ] Наркотик / Dope [2015 HDRip] Ворон Скачать
    1 | 0
    Фильмы (Blu-ray, BD-Remux, HDDVD) [ 27.1 GB ] Наркотик / Dope [2015 BDRemux 1080p] MVO Ворон Скачать
    1 | 0


    Последний раз редактировалось: -Lexx- (2015-11-23 15:48), всего редактировалось 1 раз

    28-11-2019 20:33  

    Отключить всю рекламу на сайте

    21-10-2015 19:44 Наркотик Скачать торрент  

    глянем сённяpb.wtf



    23-11-2015 15:51 Наркотик Скачать торрент  

    Релиз обновлен, замена звука на 5.1 MVO iTunes.pb.wtf



    24-11-2015 18:44 Наркотик Скачать торрент  

    Мне понравилось, конец стоит просмотра.pb.wtf



      Дорогой пользователь! Огромная просьба, поблагодарите релизера, оцените раздачу и оставьте свои комментарий, если Вы скачали Наркотик через торрент бесплатно! Внесите свою лепту в развитие PiratBit!
      Комментировать посты могут только пользователи прошедшие не сложную регистрацию
      Показать сообщения:    

      Наркотик через торрент
      Скачать бесплатно Наркотик
      Наркотик скачать торрент
      Наркотик смотреть онлайн
      Cкачать фильм Наркотик бесплатно
      Наркотик скачать торрент в хорошем качестве
      Наркотик смотреть онлайн бесплатно в хорошем качестве


      Вы не можете начинать темы
      Вы не можете отвечать на сообщения
      Вы не можете редактировать свои сообщения
      Вы не можете удалять свои сообщения
      Вы не можете голосовать в опросах
      Вы не можете прикреплять файлы к сообщениям
      Вы можете скачивать файлы