новый адрес
Мега распродажа FORZA HORIZON 4 ULTIMATE+ВСЕ DLC+ОНЛАЙН всего за 499р. 349 руб. (супер цена). Внимание количество ограничено!!!

iTunes

1+1

iTunes

мы

iTunes

1

iTunes

Чернобыль

iTunes

Ральф против интернета

Лицензия

ПШазам

Лицензия

Игра престолов

Лицензия

30
pack

ВАЖНО

!!Акция!!

Alien_RageХит недели

RePack

Resident Evil 21

ИГРА 18+

pack

RePack

Metro:Exodus

!!Акция!!

Alien_Rage

RePack

fifa19

RePack

Assassins Creed: Odyssey

RePack

NEED FOR SPEED™ PAYBACK

3 сезон

9 сезон

Бесстыжие 9 сезон

Все сериалы

все сериалы на PB.wtf

RePack

FAR CRY 5
Ребята, катастрофически не хватает 1900р. для оплаты серверов за Октябрь (всвязи с блокировками трафик упал в 3 раза), 1-2р., выручайте.
  

Пять дней отдыха (Эдуард Гаврилов) [1969, СССР, драма, мелодрама, военный, SATRip от AVP Studio] pb.wtf

Пять дней отдыха через торрент pb.wtf

Раздают: 1 [ 0 KB/s ]
Размер: 745 MB | Добавлен: 4 года назад | Торрент скачан:6 раз
Скачать  

22-10-2015 10:05 Пять дней отдыха Скачать торрент  

Пять дней отдыха
Страна: СССР
Производство: Мосфильм

Жанр: драма, мелодрама, военный
Год выпуска: 1969
Продолжительность: 01:28:52

Перевод: Не требуется
Cубтитры: нет
Оригинальная аудиодорожка: русский

Режиссер: Эдуард Гаврилов

В ролях:
Олег Ефремов (II), Наталья Кузнецова (III), Иван Лапиков, Николай Боярский, Александр Михайличенко, Виктор Маркин, Андрей Манке, Сергей Торкачевский...
Полный список актёров

Описание:
По мотивам одноименной повести И.Герасимова.
В декабре 1941 года Алексей Казанцев приезжает на пять дней с передовой в блокадный Ленинград и знакомится с Олей, отец которой в числе питерских добровольцев уходит на фронт. Ольга примирилась со своей болезнью и предстоящее ее не пугает. Алексей прилагает все силы для спасения девушки. Накануне возвращения Алексея на фронт Ольга становится его женой...
Текст песен Арсений Тарковский.

Источник: DVB
Качество видео: SATRip
Формат видео: AVI

Видео: 688x288 (2,40:1), 25 fps, XviD ~ 971 kbps avg, 0.196 bit/pixel
Аудио: 48 kHz, Dolby Digital AC3 2.0, 192 kbps

Раздача от:
Общее
Полное имя : Pyat.dney.otdyha.1969.SATRip_[New-team]_by_AVP_Studio.avi
Формат : AVI
Формат/Информация : Audio Video Interleave
Размер файла : 745 Мбайт
Продолжительность : 1 ч. 28 м.
Общий поток : 1173 Кбит/сек
Программа кодирования : VirtualDubMod 1.5.10.3 | www.virtualdub-fr.org || (build 2550/release)
Библиотека кодирования : VirtualDubMod build 2550/release

Видео
Идентификатор : 0
Формат : MPEG-4 Visual
Профиль формата : Advanced Simple@L5
Параметр BVOP формата : 1
Параметр QPel формата : Нет
Параметр GMC формата : Без точки перехода
Параметр матрицы формата : Выборочная
Идентификатор кодека : XVID
Идентификатор кодека/Подсказка : XviD
Продолжительность : 1 ч. 28 м.
Битрейт : 971 Кбит/сек
Ширина : 688 пикселей
Высота : 288 пикселей
Соотношение сторон : 2,40:1
Частота кадров : 25,000 кадров/сек
Цветовое пространство : YUV
Субдискретизация насыщенности : 4:2:0
Битовая глубина : 8 бит
Тип развёртки : Прогрессивная
Метод сжатия : С потерями
Бит/(Пиксели*Кадры) : 0.196
Размер потока : 617 Мбайт (83%)
Библиотека кодирования : XviD 73

Аудио
Идентификатор : 1
Формат : AC-3
Формат/Информация : Audio Coding 3
Расширение режима : CM (complete main)
Параметр Endianness формата : Big
Идентификатор кодека : 2000
Продолжительность : 1 ч. 28 м.
Вид битрейта : Постоянный
Битрейт : 192 Кбит/сек
Каналы : 2 канала
Расположение каналов : Front: L R
Частота : 48,0 КГц
Метод сжатия : С потерями
Размер потока : 122 Мбайт (16%)
Выравнивание : Разделение по промежуткам
Продолжительность промежутка : 40 мс. (1,00 видеокадр)
Время предзагрузки промежутка : 500 мс
pb.wtf



Скачать Пять дней отдыха через торрент http://s018.radikal.ru/i512/1510/47/9f5b9b71607a.png Скачать фильм Пять дней отдыха через торрент бесплантно в хорошем качестве Описание:По мотивам одноименной повести И.Герасимова.В декабре 1941 года Алексей Казанцев приезжает на пять дней с передовой в блокадный ... 5 10 1
Торрент: Зарегистрирован [2015-10-22 10:05] · скачан: 6 раз
Статус: √ проверено
Размер: 745 MB
Как cкачать? Как скачать Пять дней отдыха через торрент | qTorrent

% Раздел Тема Автор DL S | L
Кино СССР [ 745 MB ] Пять дней отдыха [1969 СССР военный SATRip-AVC от AVP Studio] AVP Studio Скачать
1 | 0


>> Регистрируемся здесь <<






Отзывы и комментарии о схеме читаем и пишем здесь: ---> Отзывы и комментарии о схеме

Новые благодарочки в телеграм довольных пользователей:
скриншот   скриншот   скриншот   скриншот   скриншот
    Дорогой пользователь! Огромная просьба, поблагодарите релизера, оцените раздачу и оставьте свои комментарий, если Вы скачали Пять дней отдыха через торрент бесплатно! Внесите свою лепту в развитие PiratBit!
    Комментировать посты могут только пользователи прошедшие не сложную регистрацию
    Показать сообщения:    

    Пять дней отдыха через торрент
    Скачать бесплатно Пять дней отдыха
    Пять дней отдыха скачать торрент
    Пять дней отдыха смотреть онлайн
    Cкачать фильм Пять дней отдыха бесплатно
    Пять дней отдыха скачать торрент в хорошем качестве
    Пять дней отдыха смотреть онлайн бесплатно в хорошем качестве


    Вы не можете начинать темы
    Вы не можете отвечать на сообщения
    Вы не можете редактировать свои сообщения
    Вы не можете удалять свои сообщения
    Вы не можете голосовать в опросах
    Вы не можете прикреплять файлы к сообщениям
    Вы можете скачивать файлы