Ссылка на приватное зеркало всего за 1$. Внимание количество ограничено!!!

OK

1+1

iTunes

мы

OK

1

WEB-DLRip

Джокер

Пифагор

Ведьмак / The Witcher сериал

iTunes

ПШазам

ОК

Оно 2

iTunes

30
pack

Вам бонус

ВАЖНО

!!Акция!!

Alien_RageХит недели

RePack

Resident Evil 21

ИГРА 18+

pack

RePack

jed

RePack

fifa19

RePack

Assassins Creed: Odyssey

RePack

NEED FOR SPEED™ PAYBACK

4 сезон

9 сезон

Бесстыжие 9 сезон

Все сериалы

все сериалы на PB.wtf

RePack

FAR CRY 5
  

Терминатор: Генезис / Terminator Genisys (Алан Тейлор) [2015 г., фантастика, боевик, триллер, HDRip, Дубляж "Лицензия"] pb.wtf

Терминатор: Генезис через торрент pb.wtf

Размер: 2.19 GB | Добавлен: 4 года 3 мес. назад | Торрент скачан:330 раз
Скачать  

22-10-2015 17:57 Терминатор: Генезис Скачать торрент  

Терминатор: Генезис / Terminator Genisys
Год выпуска: 2015
Страна: США / Paramount Pictures, Skydance Productions
Жанр: фантастика, боевик, триллер
Продолжительность: 02:05:43
Перевод: Дубляж (Лицензия)

Режиссер: Алан Тейлор

IMDB 6.70 (121 747)


В ролях: Арнольд Шварценеггер, Джейсон Кларк, Эмилия Кларк, Джай Кортни, Дж.К. Симмонс, Дайо Окенийи, Мэтт Смит, Кортни Б. Вэнс, Ли Бён Хон, Майкл Глэдис, Сергей Чихачев, Александр Носков, Наталья Терешкова, Михаил Данилюк, Андрей Казанцев

Описание: Когда Джон Коннор, лидер сопротивления, посылает сержанта Кайла Риза назад в 1984 год, чтобы защитить Сару Коннор и спасти будущее, неожиданный поворот событий создает разлом во времени. Сержант Риз оказывается в новой, незнакомой версии прошлого, где он встречает неожиданных союзников, в том числе Терминатора, новых опасных врагов, и новую миссию: изменить будущее...

Качество: HDRip
Формат: AVI
Видео кодек: XviD
Аудио кодек: AC3
Видео: 720x304 (2.37:1), 23.976 fps, XviD build 50 ~2042 kbps avg, 0.39 bit/pixel
Аудио: 48 kHz, AC3 Dolby Digital, 3/2 (L,C,R,l,r) + LFE ch, ~448 kbps
скриншот   скриншот   скриншот   скриншот   скриншот   скриншот  

General
Complete name : F:\кино\Терминатор. Генезис.2015.D.HDRip.avi
Format : AVI
Format/Info : Audio Video Interleave
Format profile : OpenDML
File size : 2.19 GiB
Duration : 2h 5mn
Overall bit rate : 2 497 Kbps
Writing application : VirtualDubMod 1.5.10.3 | www.virtualdub-fr.org || (build 2550/release)
Writing library : VirtualDubMod build 2550/release

Video
ID : 0
Format : MPEG-4 Visual
Format profile : Advanced Simple@L5
Format settings, BVOP : 2
Format settings, QPel : No
Format settings, GMC : No warppoints
Format settings, Matrix : Default (H.263)
Codec ID : XVID
Codec ID/Hint : XviD
Duration : 2h 5mn
Bit rate : 2 037 Kbps
Width : 720 pixels
Height : 304 pixels
Display aspect ratio : 2.35:1
Frame rate : 23.976 fps
Color space : YUV
Chroma subsampling : 4:2:0
Bit depth : 8 bits
Scan type : Progressive
Compression mode : Lossy
Bits/(Pixel*Frame) : 0.388
Stream size : 1.79 GiB (82%)
Writing library : XviD 1.2.1 (UTC 2008-12-04)

Audio
ID : 1
Format : AC-3
Format/Info : Audio Coding 3
Mode extension : CM (complete main)
Format settings, Endianness : Big
Codec ID : 2000
Duration : 2h 5mn
Bit rate mode : Constant
Bit rate : 448 Kbps
Channel(s) : 6 channels
Channel positions : Front: L C R, Side: L R, LFE
Sampling rate : 48.0 KHz
Compression mode : Lossy
Stream size : 403 MiB (18%)
Alignment : Split accross interleaves
Interleave, duration : 42 ms (1.00 video frame)
Interleave, preload duratio : 500 ms

pb.wtf



Скачать Терминатор: Генезис через торрент http://pic1.kartinco.top/images/10/uig21.jpg Скачать фильм Терминатор: Генезис через торрент бесплантно в хорошем качестве Описание: Когда Джон Коннор, лидер сопротивления, посылает сержанта Кайла Риза назад в 1984 год, чтобы защитить Сару Коннор и спасти ... 10 10 12
Торрент: Зарегистрирован [2015-10-22 17:57] · скачан: 330 раз
Статус: √ проверено
Размер: 2.19 GB
Как cкачать? Как скачать Терминатор: Генезис через торрент | qTorrent

% Раздел Тема Автор DL S | L
Фильмы с авторской озвучкой [ 1.46 GB ] Терминатор: Генезис / Terminator Genisys [2015 BDRip] [AVO] killermax2013 Скачать
3 | 0
Ultra HD (UHD: 2K, 4K, 8K) — видео сверхвысокой чёткости [ 75.58 GB ] Терминатор: Генезис / Terminator Genisys [2015 UHD BDRemux 2160p] DUB + MVO + 4xAVO sheker187 Скачать
2 | 0
Фильмы [HD 720p, 1080p] (Хороший звук DUB, MVO) [ 5.64 GB ] Терминатор: Генезис / Terminator Genisys [2015 BDRip 1080p HEVC ()] Мичман37 Скачать
4 | 1
Ultra HD (UHD: 2K, 4K, 8K) — видео сверхвысокой чёткости [ 55.11 GB ] Терминатор: Генезис / Terminator Genisys [2015 UHD BDRemux 2160p] DUB + AVO sheker187 Скачать
1 | 0
3D Видео (48-60 fps) [ 16.14 GB ] Терминатор: Генезис / Terminator Genisys [2015 BDRip 1080p / 60 fps / 3D-Video / HSBS / Dub ] от R.G. HD-Films Ressident Скачать
1 | 0
Фильмы (HD 720p, 1080p) (48-60 fps) [ 4.6 GB ] Терминатор: Генезис / Terminator Genisys [2015 BDRip 720p 60fps от еnvy / NNNB] DUB еnvy Скачать
2 | 0
Фильмы [HD 720p, 1080p] (Хороший звук DUB, MVO) [ 10.88 GB ] Терминатор: Генезис / Terminator Genisys [2015 BDRip 1080p] ЦККПСС Скачать
1 | 0

28-11-2019 20:33  

Отключить всю рекламу на сайте

06-11-2015 22:08 Терминатор: Генезис Скачать торрент  

pb.wtf



    Дорогой пользователь! Огромная просьба, поблагодарите релизера, оцените раздачу и оставьте свои комментарий, если Вы скачали Терминатор: Генезис через торрент бесплатно! Внесите свою лепту в развитие PiratBit!
    Комментировать посты могут только пользователи прошедшие не сложную регистрацию
    Показать сообщения:    

    Терминатор: Генезис через торрент
    Скачать бесплатно Терминатор: Генезис
    Терминатор: Генезис скачать торрент
    Терминатор: Генезис смотреть онлайн
    Cкачать фильм Терминатор: Генезис бесплатно
    Терминатор: Генезис скачать торрент в хорошем качестве
    Терминатор: Генезис смотреть онлайн бесплатно в хорошем качестве


    Вы не можете начинать темы
    Вы не можете отвечать на сообщения
    Вы не можете редактировать свои сообщения
    Вы не можете удалять свои сообщения
    Вы не можете голосовать в опросах
    Вы не можете прикреплять файлы к сообщениям
    Вы можете скачивать файлы