Ссылка на приватное зеркало нашего сайта всего за 1$. Внимание количество ограничено!!!

2 сезон

iTunes

1 сезон

1

iTunes

iTunes

iTunes

1 сезон

RePack

30

ИГРА 18+

pack

ВАЖНО

!!Акция!!

Alien_RageХит недели

RePack

MK11
pack

Забери бонус

RePack

jed

!!Акция!!

Alien_Rage

RePack

fifa19

RePack

Assassins Creed: Odyssey

RePack

NEED FOR SPEED™ PAYBACK

4 сезон

9 сезон

Бесстыжие 9 сезон

Все сериалы

все сериалы на PB.wtf

RePack

FAR CRY 5
  

Миньоны / Minions (Кайл Балда, Пьер Коффан) [2015 г., мультфильм, комедия, семейный, HDRip, Дубляж "Лицензия"] pb.wtf

Миньоны через торрент pb.wtf

Размер: 1.46 GB | Добавлен: 4 года 11 мес. назад | Торрент скачан:278 раз
Скачать  

22-10-2015 18:18 Миньоны Скачать торрент  

Миньоны / Minions
Год выпуска: 2015
Страна: США / Illumination Entertainment
Жанр: мультфильм, комедия, семейный
Продолжительность: 01:30:58
Перевод: Дубляж (Лицензия)

Режиссер: Кайл Балда, Пьер Коффан

IMDB 6.60 (81 883)


В ролях: Сандра Буллок, Джон Хэмм, Майкл Китон, Эллисон Дженни, Стив Куган, Дженнифер Сондерс, Джеффри Раш, Стив Карелл, Пьер Коффан, Кэти Миксон

Описание: Миньоны живут на планете гораздо дольше нас. У них одна навязчивая идея — служить самой Гадкой личности из имеющихся в наличии. Динозавры, фараоны, Дракула, Наполеон — все они оказались недолговечны. И тогда миньоны рванули в Нью-Йорк. Их ждут деньги, Влacть, роковая суперзлодейка Скарлет Оверкилл и, конечно же, вкуснейшая «банана»! Во всяком случае, так им кажется.

Качество: HDRip
Формат: AVI
Видео кодек: XviD
Аудио кодек: AC3
Видео: 720x384 (1.88:1), 23.976 fps, XviD build 50 ~1836 kbps avg, 0.28 bit/pixel
Аудио: 48 kHz, AC3 Dolby Digital, 3/2 (L,C,R,l,r) + LFE ch, ~448 kbps

Общее
Полное имя : F:\кино\Миньоны.2015.HDRip.avi
Формат : AVI
Формат/Информация : Audio Video Interleave
Размер файла : 1,46 Гбайт
Продолжительность : 1 ч. 30 м.
Общий поток : 2294 Кбит/сек
Программа кодирования : VirtualDubMod 1.5.10.3 | www.virtualdub-fr.org || (build 2550/release)
Библиотека кодирования : VirtualDubMod build 2550/release

Видео
Идентификатор : 0
Формат : MPEG-4 Visual
Профиль формата : Advanced Simple@L5
Параметр BVOP формата : 2
Параметр QPel формата : Нет
Параметр GMC формата : Без точки перехода
Параметр матрицы формата : Default (H.263)
Идентификатор кодека : XVID
Идентификатор кодека/Подсказка : XviD
Продолжительность : 1 ч. 30 м.
Битрейт : 1837 Кбит/сек
Ширина : 720 пикселей
Высота : 384 пикселя
Соотношение сторон : 1,85:1
Частота кадров : 23,976 кадра/сек
Цветовое пространство : YUV
Субдискретизация насыщенности : 4:2:0
Битовая глубина : 8 бит
Тип развёртки : Прогрессивная
Метод сжатия : С потерями
Бит/(Пиксели*Кадры) : 0.277
Размер потока : 1,17 Гбайт (80%)
Библиотека кодирования : XviD 1.2.1 (UTC 2008-12-04)

Аудио
Идентификатор : 1
Формат : AC-3
Формат/Информация : Audio Coding 3
Расширение режима : CM (complete main)
Параметр Endianness формата : Big
Идентификатор кодека : 2000
Продолжительность : 1 ч. 30 м.
Вид битрейта : Постоянный
Битрейт : 448 Кбит/сек
Каналы : 6 каналов
Расположение каналов : Front: L C R, Side: L R, LFE
Частота : 48,0 КГц
Метод сжатия : С потерями
Размер потока : 291 Мбайт (20%)
Выравнивание : Разделение по промежуткам
Продолжительность промежутка : 42 мс. (1,00 видеокадр)
Время предзагрузки промежутка : 500 мс.

pb.wtf



Скачать Миньоны через торрент http://pic1.kartinco.top/images/10/d1dyj.jpg Скачать фильм Миньоны через торрент бесплантно в хорошем качестве Описание: Миньоны живут на планете гораздо дольше нас. У них одна навязчивая идея — служить самой Гадкой личности из имеющихся в наличии. ... 10 10 12
Info! Серебряная раздача, засчитывается только 50% скачанного.
Торрент: Зарегистрирован [2015-11-15 18:21] · скачан: 278 раз
Статус: √ проверено
Размер: 1.46 GB
Как cкачать? Как скачать Миньоны через торрент | qTorrent

% Раздел Тема Автор DL S | L
Ultra HD (UHD: 2K, 4K, 8K) [ 51.69 GB ] Миньоны / Minions [2015 мультфильм UHD BDRemux 2160p] DUB [] sheker187 Скачать
1 | 0
Ultra HD (UHD: 2K, 4K, 8K) [ 12.4 GB ] Миньоны / Minions [2015 мультфильм UHD BDRip 2160p] sheker187 Скачать
1 | 0
Короткометражные мультфильмы [ 99 MB ] Миньоны против газона / Mower Minions [2016 короткометражный HDRip-AVC Любительский ] oleg8 Скачать
1 | 0
Короткометражные мультфильмы [ 59 MB ] Миньоны против газона / Mower Minions [2016 короткометражный BDRip] SUB koenig Скачать
2 | 0
Зарубежные Мультфильмы (BDRip 1080p, 720p, Blu-ray, BD-Remux) [ 5.37 GB ] Миньоны / Minions [2015 мультфильм BDRip 720p] DUB potroks Скачать
2 | 0
Иностранные мультфильмы [ 2.19 GB ] Миньоны / Minions [2015 мультфильм BDRip-AVC от sokol_ok] DUB sokol_ok Скачать
4 | 0
Иностранные мультфильмы [ 2.18 GB ] Миньоны / Minions [2015 мультфильм BDRip-AVC] DUB potroks Скачать
1 | 0

28-11-2019 20:33  

Отключить всю рекламу на сайте

15-11-2015 18:23 Миньоны Скачать торрент  

Релиз обновлен ! Просьба перекачать торрент файл pb.wtf



    Дорогой пользователь! Огромная просьба, поблагодарите релизера, оцените раздачу и оставьте свои комментарий, если Вы скачали Миньоны через торрент бесплатно! Внесите свою лепту в развитие PiratBit!
    Комментировать посты могут только пользователи прошедшие не сложную регистрацию
    Показать сообщения:    

    Миньоны через торрент
    Скачать бесплатно Миньоны
    Миньоны скачать торрент
    Миньоны смотреть онлайн
    Cкачать фильм Миньоны бесплатно
    Миньоны скачать торрент в хорошем качестве
    Миньоны смотреть онлайн бесплатно в хорошем качестве


    Вы не можете начинать темы
    Вы не можете отвечать на сообщения
    Вы не можете редактировать свои сообщения
    Вы не можете удалять свои сообщения
    Вы не можете голосовать в опросах
    Вы не можете прикреплять файлы к сообщениям
    Вы можете скачивать файлы