Ссылка на приватное зеркало всего за 1$. Внимание количество ограничено!!!

iTunes

iTunes

iTunes

1

iTunes

iTunes

iTunes

WEBRip

iTunes

30
pack

$ от Little Big

ВАЖНО

!!Акция!!

Alien_RageХит недели

RePack

Resident Evil 21

ИГРА 18+

pack

RePack

jed

!!Акция!!

Alien_Rage

RePack

fifa19

RePack

Assassins Creed: Odyssey

RePack

NEED FOR SPEED™ PAYBACK

4 сезон

9 сезон

Бесстыжие 9 сезон

Все сериалы

все сериалы на PB.wtf

RePack

FAR CRY 5
  

Макс / Max (Боаз Якин / Boaz Yakin) [2015, приключения, семейный, BDRip-AVC от potroks] MVO [Лицензия] pb.wtf

Макс через торрент pb.wtf

Размер: 2.18 GB | Добавлен: 4 года 9 мес. назад | Торрент скачан:180 раз
Скачать  

22-10-2015 20:46 Макс Скачать торрент  

Макс / Max
«Best Friend. Hero. Marine»
Год выпуска: 2015
Страна: США / Warner Bros. Pictures, Metro-Goldwyn-Mayer (MGM), Sunswept Entertainment
Жанр: приключения, семейный
Продолжительность: 01:50:58
Перевод: Профессиональный (многоголосый закадровый) [BD CEE]
Субтитры: русские (полные + форс.), английские (Full + SDH + SDH-Colored)
Навигация по главам: есть
Режиссер: Боаз Якин / Boaz Yakin
В ролях:

Томас Хейден Чёрч (Ray Wincott), Джош Уиггинс (Justin Wincott), Люк Клеинтенк (Tyler Harne), Лорен Грэм (Pamela Wincott), Робби Амелл (Kyle Wincott), Mia Xitlali (Carmen), Dejon LaQuake (Chuy), Джей Эрнандес (Sergeant Reyes), Оуэн Харн (Stack), Джозеф Джулиан Сория (Emilio), Raymond W. Beal (Animal Control Handler #1 / Marine), Эдгар Арреола (Cartel Leader)
Описание: История о собаке, которая помогала солдатам в Афганистане. После трагического происшествия собаку забирает к себе домой семья ответственного за нее солдата.

Качество: BDRip-AVC
Формат: MKV
Видео кодек: AVC
Аудио кодек: AC3
Видео: AVC, 1032x430 (2.40:1), 1916 kbps, 23,976 fps, 0.180 bit/pixel
Аудио№1: AC3 / 5.1 / 48 kHz / 448 kbps / 16 bit | RUS
Аудио№2: AC3 / 5.1 / 48 kHz / 448 kbps / 16 bit | ENG

Релиз группы:
Автор рипа: potroks

Код:

General
Unique ID                   : 231061912390806519521325058170339068030 (0xADD4E7D5EE6D5A26A35152BD5D4A087E)
Complete name               : Maks.2015.DUAL.BDRip.x264.-HELLYWOOD.mkv
Format                      : Matroska
Format version              : Version 4 / Version 2
File size                   : 2.18 GiB
Duration                    : 1h 50mn
Overall bit rate            : 2 814 Kbps
Movie name                  : Max (2015) - HELLYWOOD
Encoded date                : UTC 2010-02-22 21:41:31
Writing application         : mkvmerge v5.8.0 ('No Sleep / Pillow') built on Sep 30 2012 10:57:14
Writing library             : libebml v1.3.0 + libmatroska v1.4.0

Video
ID                          : 1
Format                      : AVC
Format/Info                 : Advanced Video Codec
Format profile              : High@L4.1
Format settings, CABAC      : Yes
Format settings, ReFrames   : 10 frames
Codec ID                    : V_MPEG4/ISO/AVC
Duration                    : 1h 50mn
Bit rate                    : 1 916 Kbps
Width                       : 1 032 pixels
Height                      : 430 pixels
Display aspect ratio        : 2.40:1
Frame rate mode             : Constant
Frame rate                  : 23.976 fps
Color space                 : YUV
Chroma subsampling          : 4:2:0
Bit depth                   : 8 bits
Scan type                   : Progressive
Bits/(Pixel*Frame)          : 0.180
Stream size                 : 1.44 GiB (66%)
Title                       : potroks
Writing library             : x264 core 146 r2538 121396c
Encoding settings           : cabac=1 / ref=10 / deblock=1:-2:-2 / analyse=0x3:0x113 / me=umh / subme=11 / psy=1 / psy_rd=1.00:0.05 / mixed_ref=1 / me_range=48 / chroma_me=1 / trellis=2 / 8x8dct=1 / cqm=0 / deadzone=21,11 / fast_pskip=0 / chroma_qp_offset=-3 / threads=9 / lookahead_threads=2 / sliced_threads=0 / nr=0 / decimate=1 / interlaced=0 / bluray_compat=0 / constrained_intra=0 / bframes=11 / b_pyramid=2 / b_adapt=2 / b_bias=0 / direct=3 / weightb=1 / open_gop=0 / weightp=2 / keyint=250 / keyint_min=23 / scenecut=40 / intra_refresh=0 / rc_lookahead=60 / rc=2pass / mbtree=0 / bitrate=1916 / ratetol=1.0 / qcomp=0.70 / qpmin=0 / qpmax=69 / qpstep=4 / cplxblur=20.0 / qblur=0.5 / vbv_maxrate=14000 / vbv_bufsize=14000 / nal_hrd=none / filler=0 / ip_ratio=1.35 / pb_ratio=1.25 / aq=1:0.80
Language                    : English
Default                     : Yes
Forced                      : No

Audio #1
ID                          : 2
Format                      : AC-3
Format/Info                 : Audio Coding 3
Mode extension              : CM (complete main)
Format settings, Endianness : Big
Codec ID                    : A_AC3
Duration                    : 1h 50mn
Bit rate mode               : Constant
Bit rate                    : 448 Kbps
Channel(s)                  : 6 channels
Channel positions           : Front: L C R, Side: L R, LFE
Sampling rate               : 48.0 KHz
Compression mode            : Lossy
Stream size                 : 356 MiB (16%)
Title                       : MVO | DD 5.1 @ 448 kbps - Blu_ray CEE
Language                    : Russian
Default                     : Yes
Forced                      : No

Audio #2
ID                          : 3
Format                      : AC-3
Format/Info                 : Audio Coding 3
Mode extension              : CM (complete main)
Format settings, Endianness : Big
Codec ID                    : A_AC3
Duration                    : 1h 50mn
Bit rate mode               : Constant
Bit rate                    : 448 Kbps
Channel(s)                  : 6 channels
Channel positions           : Front: L C R, Side: L R, LFE
Sampling rate               : 48.0 KHz
Compression mode            : Lossy
Stream size                 : 356 MiB (16%)
Title                       : Original | DD 5.1 @ 448 kbps
Language                    : English
Default                     : No
Forced                      : No

Text #1
ID                          : 4
Format                      : UTF-8
Codec ID                    : S_TEXT/UTF8
Codec ID/Info               : UTF-8 Plain Text
Title                       : Forced
Language                    : Russian
Default                     : Yes
Forced                      : No

Text #2
ID                          : 5
Format                      : UTF-8
Codec ID                    : S_TEXT/UTF8
Codec ID/Info               : UTF-8 Plain Text
Title                       : iTunes
Language                    : Russian
Default                     : No
Forced                      : No

Text #3
ID                          : 6
Format                      : UTF-8
Codec ID                    : S_TEXT/UTF8
Codec ID/Info               : UTF-8 Plain Text
Title                       : Full
Language                    : English
Default                     : No
Forced                      : No

Text #4
ID                          : 7
Format                      : UTF-8
Codec ID                    : S_TEXT/UTF8
Codec ID/Info               : UTF-8 Plain Text
Title                       : SDH
Language                    : English
Default                     : No
Forced                      : No

Text #5
ID                          : 8
Format                      : UTF-8
Codec ID                    : S_TEXT/UTF8
Codec ID/Info               : UTF-8 Plain Text
Title                       : SDH-Colored
Language                    : English
Default                     : No
Forced                      : No

Menu
00:00:00.000                : :Chapter 01
00:09:15.763                : :Chapter 02
00:20:30.438                : :Chapter 03
00:31:01.859                : :Chapter 04
00:40:28.384                : :Chapter 05
00:50:32.737                : :Chapter 06
00:59:04.541                : :Chapter 07
01:09:11.854                : :Chapter 08
01:20:37.082                : :Chapter 09
01:30:08.737                : :Chapter 10
01:40:27.270                : :Chapter 11
01:44:01.734                : :Chapter 12


pb.wtf



Скачать Макс через торрент http://i67.fastpic.ru/big/2015/1014/16/6ff9f1b9703529ef20e9b1e30a832616.png Скачать фильм Макс через торрент бесплантно в хорошем качестве Описание: История о собаке, которая помогала солдатам в Афганистане. После трагического происшествия собаку забирает к себе домой семья ... 10 10 8
Info! Золотая раздача, скачанное не засчитывается.
Торрент: Зарегистрирован [2015-10-22 20:46] · скачан: 180 раз
Статус: √ проверено
Размер: 2.18 GB
Как cкачать? Как скачать Макс через торрент | qTorrent

% Раздел Тема Автор DL S | L
Фильмы 2009 [ 736 MB ] Макс Пэйн / Max Payne [2009 DVDRip] [Альтернативная версия] killermax2013 Скачать
1 | 0
Зарубежные сериалы [ 6.93 GB ] Оставленные / Остатки / The Leftovers / Сезон: 1 / Серии 1-10 из 10 [ 2014 HDTVRip ] DVO GEKADOL Скачать
1 | 0
Сборники и Сиквелы (48-60 fps) [ 32.72 GB ] Безумный Макс: Трилогия / Mad Max: Trilogy [1979-1985 Австралия BDRip 1080p / 60 FPS] Tiberiumsun69 Скачать
1 | 0
Нетрадиционное порно [ 12.95 GB ] Макс Фактор 11-20 / Max Faktor 11-20 [2001-2007 г Extreme Anal Gagging Fisting Oral Teen SchoolGirl Enema Peeing Pissing Toys Facial DVDRip] лисяра Скачать
1 | 1
Фильмы с авторской озвучкой [ 2.18 GB ] Безумный Макс: Дорога ярости / Mad Max: Fury Road [2015 BDRip] [AVO] killermax2013 Скачать
1 | 0
Фильмы (DVD фильмы) [ 5.75 GB ] Безумный Макс: Дорога ярости / Mad Max: Fury Road [2015 DVD9 Custom] Ворон Скачать
1 | 0
Сборники и Сиквелы (48-60 fps) [ 20.43 GB ] Безумный Макс: Трилогия / Mad Max: Trilogy [1979-1985 Австралия BDRip 720p / 60 FPS] Tiberiumsun69 Скачать
1 | 0

28-11-2019 20:33  

Отключить всю рекламу на сайте

22-10-2015 20:56 Макс Скачать торрент  

И как фильм ? кто смотрел.pb.wtf



23-10-2015 08:58 Макс Скачать торрент  

Ну про собак всегда нормальные фильмы, если пиндосы как обычно какую нибудь свою хрень не задвинули - весь мир против них(русские,китайцы,корейцы, афроамериканцы................................)pb.wtf



    Дорогой пользователь! Огромная просьба, поблагодарите релизера, оцените раздачу и оставьте свои комментарий, если Вы скачали Макс через торрент бесплатно! Внесите свою лепту в развитие PiratBit!
    Комментировать посты могут только пользователи прошедшие не сложную регистрацию
    Показать сообщения:    

    Макс через торрент
    Скачать бесплатно Макс
    Макс скачать торрент
    Макс смотреть онлайн
    Cкачать фильм Макс бесплатно
    Макс скачать торрент в хорошем качестве
    Макс смотреть онлайн бесплатно в хорошем качестве


    Вы не можете начинать темы
    Вы не можете отвечать на сообщения
    Вы не можете редактировать свои сообщения
    Вы не можете удалять свои сообщения
    Вы не можете голосовать в опросах
    Вы не можете прикреплять файлы к сообщениям
    Вы можете скачивать файлы