Ссылка на приватное зеркало всего за 1$. Внимание количество ограничено!!!

OK

1+1

iTunes

мы

OK

1

WEB-DLRip

Джокер

Пифагор

Ведьмак / The Witcher сериал

iTunes

ПШазам

ОК

Оно 2

iTunes

30
pack

Вам бонус

ВАЖНО

!!Акция!!

Alien_RageХит недели

RePack

Resident Evil 21

ИГРА 18+

pack

RePack

jed

RePack

fifa19

RePack

Assassins Creed: Odyssey

RePack

NEED FOR SPEED™ PAYBACK

4 сезон

9 сезон

Бесстыжие 9 сезон

Все сериалы

все сериалы на PB.wtf

RePack

FAR CRY 5
  

Каникулы / Vacation (Джон Фрэнсис Дейли, Джонатан М. Голдштейн) [2015, комедия, приключения, HDRip] Дубляж] iTunes pb.wtf

Каникулы через торрент pb.wtf

Размер: 1.37 GB | Добавлен: 4 года 3 мес. назад | Торрент скачан:549 раз
Скачать  

23-10-2015 08:04 Каникулы Скачать торрент  

Каникулы / Vacation«И что могло пойти не так»

  • Год выхода: 2015
  • Жанр: комедия, приключения

  • Страна: США
  • Продолжительность: 01:39:02
  • Перевод: Дубляж - [Лицензия / iTunes]
  • Режиссер: Джон Фрэнсис Дейли, Джонатан М. Голдштейн
  • В ролях:

    Эд Хелмс (Rusty Griswold), Кристина Эпплгейт (Debbie Griswold), Скайлер Джизондо (James Griswold), Стил Стеббинс (Kevin Griswold), Крис Хемсворт (Stone Crandall), Лесли Манн (Audrey Crandall), Чеви Чейз (Clark Griswold), Беверли Д’Анджело (Ellen Griswold), Чарли Дэй (Chad), Катрин Миссал (Adena), Рон Ливингстон (Ethan), Норман Ридус (Trucker)


  • Расти Гризвольд - молодой отец и примерный семьянин, который очень хочет сплотить семью и воссоздать каникулы из своего детства. Вместе с супругой и двумя сыновьями он решает совершить незабываемое путешествие через всю страну, конечной целью которого станет самый лучший тематический парк Америки. Все тщательно спланировав, они отправляются в дорогу, надеясь, что их ждет очень веселое и увлекательное путешествие.
    В начале пути все происходит как нельзя лучше, но чем дальше они отдаляются от дома, тем больше проблем их ждет впереди. Все пошло совсем не так, как планировал Расти, но он не собирается останавливаться и готов сделать все возможное для того, чтобы добраться до пункта назначения и подарить своей семье лучшие каникулы...

  • Качество: HDRip
  • Формат: AVI
  • Видео кодек: XviD
  • Аудио кодек: AC3
  • Видео: XviD, 720x304 (2.35:1), 1582 kbps, 23,976 fps, 0,302 bpp
  • Аудио: русский / AC3 / 5.1 / 48 kHz / 384 kbps / 16 bit

    Код:

    General
    Complete name                            : H:\Kan1kuly.2015.D.HDRip.1400Mb.avi
    Format                                   : AVI
    Format/Info                              : Audio Video Interleave
    File size                                : 1.37 GiB
    Duration                                 : 1h 39mn
    Overall bit rate                         : 1 976 Kbps
    Writing application                      : VirtualDubMod 1.5.10.2 (build 2540/release)
    Writing library                          : VirtualDubMod build 2540/release

    Video
    ID                                       : 0
    Format                                   : MPEG-4 Visual
    Format profile                           : Advanced Simple@L5
    Format settings, BVOP                    : 2
    Format settings, QPel                    : No
    Format settings, GMC                     : No warppoints
    Format settings, Matrix                  : Default (MPEG)
    Codec ID                                 : XVID
    Codec ID/Hint                            : XviD
    Duration                                 : 1h 39mn
    Bit rate                                 : 1 583 Kbps
    Width                                    : 720 pixels
    Height                                   : 304 pixels
    Display aspect ratio                     : 2.35:1
    Frame rate                               : 23.976 fps
    Color space                              : YUV
    Chroma subsampling                       : 4:2:0
    Bit depth                                : 8 bits
    Scan type                                : Progressive
    Compression mode                         : Lossy
    Bits/(Pixel*Frame)                       : 0.302
    Stream size                              : 1.10 GiB (80%)
    Writing library                          : XviD 1.2.1 (UTC 2008-12-04)

    Audio
    ID                                       : 1
    Format                                   : AC-3
    Format/Info                              : Audio Coding 3
    Mode extension                           : CM (complete main)
    Codec ID                                 : 2000
    Duration                                 : 1h 39mn
    Bit rate mode                            : Constant
    Bit rate                                 : 384 Kbps
    Channel(s)                               : 6 channels
    Channel positions                        : Front: L C R, Side: L R, LFE
    Sampling rate                            : 48.0 KHz
    Bit depth                                : 16 bits
    Compression mode                         : Lossy
    Delay relative to video                  : 1s 40ms
    Stream size                              : 272 MiB (19%)
    Alignment                                : Split accross interleaves
    Interleave, duration                     : 42 ms (1.00 video frame)
    Interleave, preload duration             : 500 ms

    Скриншоты:


    © Оформление by -Lexx- pb.wtf



  • Скачать Каникулы через торрент http://pic.kartinco.top/images/6/stazu.jpg Скачать фильм Каникулы через торрент бесплантно в хорошем качестве qw.png Расти Гризвольд - молодой отец и примерный семьянин, который очень хочет сплотить семью и воссоздать каникулы из своего детства. ... 9.4 10 17
    Торрент: Зарегистрирован [2015-10-23 08:04] · скачан: 549 раз
    Статус: √ проверено
    Размер: 1.37 GB
    Как cкачать? Как скачать Каникулы через торрент | qTorrent

    % Раздел Тема Автор DL S | L
    Зарубежные Мультфильмы (BDRip 1080p, 720p, Blu-ray, BD-Remux) [ 2.01 GB ] Монстры на каникулах 3: Море зовёт / Hotel Transylvania 3: Summer Vacation [2018 Мультфильм BDRip 1080p HEVC ()] Мичман37 Скачать
    1 | 0
    Зарубежные Мультфильмы (WEB-DL 720p, 1080p) [ 3.33 GB ] Монстры на каникулах 3: Море зовёт / Hotel Transylvania 3: Summer Vacation [2018 мультфильм WEB-DL 720p] DUB sheker187 Скачать
    2 | 0
    Зарубежные Мультфильмы (WEB-DL 720p, 1080p) [ 4.09 GB ] Монстры на каникулах 3: Море зовёт / Hotel Transylvania 3: Summer Vacation [2018 мультфильм WEB-DL 1080p] DUB sheker187 Скачать
    3 | 0
    R.G. Resident & PiratVoice - Фильмы, Видео [ 2.17 GB ] Каникулы / Vacation [2015 WEB-DLRip-AVC ] ] R.G.Resident schultz Скачать
    2 | 0
    Фильмы (WEB-DL 720p, 1080p) [ 3.8 GB ] Каникулы / Vacation [2015 WEB-DL 1080p ] -Lexx- Скачать
    1 | 0
    Фильмы 2015 [DVDrip, WEB-DLRip, HDrip] [ 1.45 GB ] Каникулы / Vacation [2015 WEB-DLRip ] -Lexx- Скачать
    1 | 0
    Фильмы (WEB-DL 720p, 1080p) [ 3.45 GB ] Каникулы / Vacation [2015 WEB-DL 720p ] -Lexx- Скачать
    1 | 0

    28-11-2019 20:33  

    Отключить всю рекламу на сайте

    23-10-2015 19:18 Каникулы Скачать торрент  

    НЕ впечатлил. на раз. facepalm facepalm facepalmpb.wtf



    24-10-2015 19:37 Каникулы Скачать торрент  

    На 1 раз сойдет)pb.wtf



      Дорогой пользователь! Огромная просьба, поблагодарите релизера, оцените раздачу и оставьте свои комментарий, если Вы скачали Каникулы через торрент бесплатно! Внесите свою лепту в развитие PiratBit!
      Комментировать посты могут только пользователи прошедшие не сложную регистрацию
      Показать сообщения:    

      Каникулы через торрент
      Скачать бесплатно Каникулы
      Каникулы скачать торрент
      Каникулы смотреть онлайн
      Cкачать фильм Каникулы бесплатно
      Каникулы скачать торрент в хорошем качестве
      Каникулы смотреть онлайн бесплатно в хорошем качестве


      Вы не можете начинать темы
      Вы не можете отвечать на сообщения
      Вы не можете редактировать свои сообщения
      Вы не можете удалять свои сообщения
      Вы не можете голосовать в опросах
      Вы не можете прикреплять файлы к сообщениям
      Вы можете скачивать файлы