Ссылка на приватное зеркало всего за 1$. Внимание количество ограничено!!!

iTunes

iTunes

iTunes

1

iTunes

iTunes

iTunes

iTunes

iTunes

30
pack

$ от Little Big

ВАЖНО

!!Акция!!

Alien_RageХит недели

RePack

Resident Evil 21

ИГРА 18+

pack

RePack

jed

!!Акция!!

Alien_Rage

RePack

fifa19

RePack

Assassins Creed: Odyssey

RePack

NEED FOR SPEED™ PAYBACK

4 сезон

9 сезон

Бесстыжие 9 сезон

Все сериалы

все сериалы на PB.wtf

RePack

FAR CRY 5
  

Смертельно живой (Максим Стецков) [2015, триллер, драма, детектив, WEB-DLRip] Оригинал pb.wtf

Смертельно живой через торрент pb.wtf

Размер: 1.36 GB | Добавлен: 4 года 7 мес. назад | Торрент скачан:1361 раз
Скачать  

23-10-2015 18:58 Смертельно живой Скачать торрент  

Смертельно живой
«А ты веришь в судьбу?»

Год выпуска: 2015
Страна: Украина
Жанр: триллер, драма, детектив
Продолжительность: 01:16:24
Перевод: Оригинал
Режиссер: Максим Стецков
В ролях: Виктория Варлей, Максим Стецков, Александр Герелес, Вячеслав Довженко, Олег Примогенов, Михаил Кришталь
Описание:
Семен - известный писатель. На протяжении трех лет ему приходят смс сообщения от неизвестного номера с предсказанием будущего. Что бы Семен не делал, все предсказания сбывались.
Все попытки найти автора сообщений увенчались провалом. Поэтому Семен продолжает жить спокойной жизнью. До тех пор, пока ему не приходит очередное сообщение...

Качество: WEB-DLRip
Формат: AVI
Видео: XviD, 720x304 (2.35:1), 2349 kbps, 25 fps, 0,429 bpp
Аудио: AC3 / 2.0 / 48 kHz / 192 kbps / 16 bit

Код:

General
Complete name                            : E:\Торрент\Smertelno.zhivoy.2015.WEB-DLRip.avi
Format                                   : AVI
Format/Info                              : Audio Video Interleave
Format profile                           : OpenDML
File size                                : 1.36 GiB
Duration                                 : 1h 16mn
Overall bit rate                         : 2 554 Kbps
Writing application                      : XviD4PSP 6.0 / 54.29.105

Video
ID                                       : 0
Format                                   : MPEG-4 Visual
Format profile                           : Advanced Simple@L5
Format settings, BVOP                    : 1
Format settings, QPel                    : No
Format settings, GMC                     : No warppoints
Format settings, Matrix                  : Default (H.263)
Codec ID                                 : XVID
Codec ID/Hint                            : XviD
Duration                                 : 1h 16mn
Bit rate                                 : 2 349 Kbps
Width                                    : 720 pixels
Height                                   : 304 pixels
Display aspect ratio                     : 2.35:1
Frame rate                               : 25.000 fps
Color space                              : YUV
Chroma subsampling                       : 4:2:0
Bit depth                                : 8 bits
Scan type                                : Progressive
Compression mode                         : Lossy
Bits/(Pixel*Frame)                       : 0.429
Stream size                              : 1.25 GiB (92%)
Writing library                          : XviD 64

Audio
ID                                       : 1
Format                                   : AC-3
Format/Info                              : Audio Coding 3
Mode extension                           : CM (complete main)
Codec ID                                 : 2000
Duration                                 : 1h 16mn
Bit rate mode                            : Constant
Bit rate                                 : 192 Kbps
Channel(s)                               : 2 channels
Channel positions                        : Front: L R
Sampling rate                            : 48.0 KHz
Bit depth                                : 16 bits
Compression mode                         : Lossy
Stream size                              : 105 MiB (8%)
Alignment                                : Aligned on interleaves
Interleave, duration                     : 32 ms (0.80 video frame)

pb.wtf



Скачать Смертельно живой через торрент http://i4.imageban.ru/out/2015/10/23/7185d98ceae8bf61828c4acad6a4fe8e.jpg Скачать фильм Смертельно живой через торрент бесплантно в хорошем качестве Описание: Семен - известный писатель. На протяжении трех лет ему приходят смс сообщения от неизвестного номера с предсказанием будущего. ... 7.8 10 35
Info! Золотая раздача, скачанное не засчитывается.
Торрент: Зарегистрирован [2015-10-23 18:58] · скачан: 1 361 раз
Статус: √ проверено
Размер: 1.36 GB
Как cкачать? Как скачать Смертельно живой через торрент | qTorrent

28-11-2019 20:33  

Отключить всю рекламу на сайте

24-10-2015 07:42 Смертельно живой Скачать торрент  

Оценим спасибо. :dancee:pb.wtf



28-10-2015 12:43 Смертельно живой Скачать торрент  

Хороший фильм. Не ожидал даже. Сюжет забористый!!! Задумка автора на пять!pb.wtf



29-11-2015 19:21 Смертельно живой Скачать торрент  

ааа оригинал в этом случае какой язык???????????pb.wtf



08-03-2016 17:35 Смертельно живой Скачать торрент  

адп писал(а):

ааа оригинал в этом случае какой язык???????????

молдавский pb.wtf



17-03-2016 20:54 Смертельно живой Скачать торрент  

Норм. кинчик .Особенно концовка фильма порадовала.pb.wtf



23-03-2016 20:27 Смертельно живой Скачать торрент  

Спасибо!)pb.wtf



    Дорогой пользователь! Огромная просьба, поблагодарите релизера, оцените раздачу и оставьте свои комментарий, если Вы скачали Смертельно живой через торрент бесплатно! Внесите свою лепту в развитие PiratBit!
    Комментировать посты могут только пользователи прошедшие не сложную регистрацию
    Показать сообщения:    

    Смертельно живой через торрент
    Скачать бесплатно Смертельно живой
    Смертельно живой скачать торрент
    Смертельно живой смотреть онлайн
    Cкачать фильм Смертельно живой бесплатно
    Смертельно живой скачать торрент в хорошем качестве
    Смертельно живой смотреть онлайн бесплатно в хорошем качестве


    Вы не можете начинать темы
    Вы не можете отвечать на сообщения
    Вы не можете редактировать свои сообщения
    Вы не можете удалять свои сообщения
    Вы не можете голосовать в опросах
    Вы не можете прикреплять файлы к сообщениям
    Вы можете скачивать файлы