Ссылка на приватное зеркало нашего сайта всего за 1$. Внимание количество ограничено!!!

2 сезон

iTunes

1 сезон

1

2 сезон

2 сезон

iTunes

1 сезон

RePack

30

Ultimate

ВАЖНО

ИГРА 18+

pack

RePack

MK11
pack

Забери бонус

RePack

jed

!!Акция!!

Alien_Rage

RePack

fifa19

RePack

Assassins Creed: Odyssey

RePack

NEED FOR SPEED™ PAYBACK

4 сезон

9 сезон

Бесстыжие 9 сезон

Все сериалы

все сериалы на PB.wtf

RePack

FAR CRY 5
  

Наркотик / Dope (Рик Фамуйива) [2015, драма, комедия, криминал, BDRemux 1080p] MVO pb.wtf

Наркотик через торрент pb.wtf

Размер: 27.1 GB | Добавлен: 5 лет 1 мес. назад | Торрент скачан:10 раз
Скачать  

24-10-2015 06:31 Наркотик Скачать торрент  

Название: Наркотик

Оригинальное название: Dope

Год выпуска: 2015

Продолжительность: 01:43:18

Озвучивание: Профессиональное (многоголосое) [Официальный звук]

Субтитры: Английские

Жанр: Драма, комедия, криминал

Выпущено: США, Forest Whitaker's Significant Productions, IamOTHER Entertainment, Revolt Films

Режиссер: Рик Фамуйива

В ролях: Раким Мэйерс, Блейк Андерсон, Брюс Битти, Де’андре Бондс, Джулиан Брэнд, Куинси Браун, Кирси Клемонс, Кимберли Элиз, Рик Фокс, Кристофер Гленн

Описание: Действие фильма разворачивается в 90-е годы в Инглвуде. В центре сюжета — школьник по имени Малкольм и парочка его друзей Джиб и Дигги. Малкольм является поклонником хип-хопа и мечтает однажды попасть в Гарвард. Однако реальность такова, что грезам Малкольма предстоит каждый день сталкиваться с суровой реальностью....



Качество: BDRemux 1080p
Формат: MKV
Видео: AVC, 1920x1080 (16:9), 23.976 fps, 32.9 Mbps (0.662 bit/pixel)
Аудио #1: AC-3, 48.0 KHz, 2 ch, 192 Kbps, CBR (Russian)
Аудио #2: AC-3, 48.0 KHz, 6 ch, 640 Kbps, CBR (English)
Аудио #3: DTS MA / Core, 48.0 KHz, 6 ch, 1 576 Kbps / 1 510 Kbps, VBR (English)
Аудио #4: DTS, 48.0 KHz, 6 ch, 1 510 Kbps, CBR (English)
Общее
Уникальный идентификатор : 253918339027081357328986073206489221930 (0xBF06E4AC6F1482A78334BAF471920B2A)
Полное имя : D:\Торенты\Dope.2015.BDRemux.mkv
Формат : Matroska
Версия формата : Version 4 / Version 2
Размер файла : 27,1 Гбайт
Продолжительность : 1 ч. 43 м.
Режим общего битрейта : Переменный
Общий поток : 37,6 Мбит/сек
Дата кодирования : UTC 2015-10-20 17:51:32
Программа кодирования : mkvmerge v8.5.0 ('Vanishing Act') 64bit
Библиотека кодирования : libebml v1.3.1 + libmatroska v1.4.2

Видео
Идентификатор : 1
Формат : AVC
Формат/Информация : Advanced Video Codec
Профиль формата : High@L4.1
Параметр CABAC формата : Да
Параметр ReFrames формата : 4 кадра
Идентификатор кодека : V_MPEG4/ISO/AVC
Продолжительность : 1 ч. 43 м.
Вид битрейта : Переменный
Максимальный битрейт : 35,0 Мбит/сек
Ширина : 1920 пикселей
Высота : 1080 пикселей
Соотношение сторон : 16:9
Режим частоты кадров : Постоянный
Частота кадров : 23,976 кадра/сек
Цветовое пространство : YUV
Субдискретизация насыщенности : 4:2:0
Битовая глубина : 8 бит
Тип развёртки : Прогрессивная
Язык : English
Default : Нет
Forced : Нет

Аудио #1
Идентификатор : 2
Формат : AC-3
Формат/Информация : Audio Coding 3
Расширение режима : CM (complete main)
Параметр Endianness формата : Big
Идентификатор кодека : A_AC3
Продолжительность : 1 ч. 43 м.
Вид битрейта : Постоянный
Битрейт : 192 Кбит/сек
Каналы : 2 канала
Расположение каналов : Front: L R
Частота : 48,0 КГц
Битовая глубина : 16 бит
Метод сжатия : С потерями
Размер потока : 142 Мбайт (1%)
Язык : Russian
Default : Да
Forced : Да

Аудио #2
Идентификатор : 3
Формат : AC-3
Формат/Информация : Audio Coding 3
Расширение режима : CM (complete main)
Параметр Endianness формата : Big
Идентификатор кодека : A_AC3
Продолжительность : 1 ч. 43 м.
Вид битрейта : Постоянный
Битрейт : 640 Кбит/сек
Каналы : 6 каналов
Расположение каналов : Front: L C R, Side: L R, LFE
Частота : 48,0 КГц
Битовая глубина : 16 бит
Метод сжатия : С потерями
Размер потока : 473 Мбайт (2%)
Язык : English
Default : Нет
Forced : Нет

Аудио #3
Идентификатор : 4
Формат : DTS
Формат/Информация : Digital Theater Systems
Профиль формата : MA / Core
Режим : 16
Параметр Endianness формата : Big
Идентификатор кодека : A_DTS
Продолжительность : 1 ч. 43 м.
Вид битрейта : Переменный
Битрейт : Неизвестно / 1509 Кбит/сек
Каналы : 6 каналов
Расположение каналов : Front: L C R, Side: L R, LFE
Частота : 48,0 КГц
Битовая глубина : 24 бит
Метод сжатия : Без потерь / Lossy
Язык : English
Default : Нет
Forced : Нет

Аудио #4
Идентификатор : 5
Формат : DTS
Формат/Информация : Digital Theater Systems
Режим : 16
Параметр Endianness формата : Big
Идентификатор кодека : A_DTS
Продолжительность : 1 ч. 43 м.
Вид битрейта : Постоянный
Битрейт : 1509 Кбит/сек
Каналы : 6 каналов
Расположение каналов : Front: L C R, Side: L R, LFE
Частота : 48,0 КГц
Битовая глубина : 24 бит
Метод сжатия : С потерями
Размер потока : 1,09 Гбайт (4%)
Язык : English
Default : Нет
Forced : Нет

Текст
Идентификатор : 6
Формат : UTF-8
Идентификатор кодека : S_TEXT/UTF8
Идентификатор кодека/Информация : UTF-8 Plain Text
Язык : English
Default : Нет
Forced : Нет

Меню
00:00:00.000 : en:Chapter 01
00:06:03.738 : en:Chapter 02
00:09:34.532 : en:Chapter 03
00:15:05.362 : en:Chapter 04
00:19:57.404 : en:Chapter 05
00:24:38.977 : en:Chapter 06
00:27:59.678 : en:Chapter 07
00:32:43.503 : en:Chapter 08
00:37:22.782 : en:Chapter 09
00:41:45.252 : en:Chapter 10
00:46:18.025 : en:Chapter 11
00:52:19.261 : en:Chapter 12
00:59:15.426 : en:Chapter 13
01:04:28.781 : en:Chapter 14
01:09:18.654 : en:Chapter 15
01:14:49.109 : en:Chapter 16
01:20:27.030 : en:Chapter 17
01:25:07.143 : en:Chapter 18
01:31:30.818 : en:Chapter 19
01:38:09.133 : en:Chapter 20
pb.wtf



Скачать Наркотик через торрент http://s017.radikal.ru/i420/1510/0e/4e33a43f3652.jpg Скачать фильм Наркотик через торрент бесплантно в хорошем качестве Описание: Действие фильма разворачивается в 90-е годы в Инглвуде. В центре сюжета — школьник по имени Малкольм и парочка его друзей Джиб и ... 10 10 5
Info! Золотая раздача, скачанное не засчитывается.
Торрент: Зарегистрирован [2015-10-24 06:31] · скачан: 10 раз
Статус: √ проверено
Размер: 27.1 GB
Как cкачать? Как скачать Наркотик через торрент | qTorrent

% Раздел Тема Автор DL S | L
Фильмы 2015 [DVDrip, WEB-DLRip, HDrip] [ 2.14 GB ] Наркотик / Dope [2015 BDRip-AVC] MVO potroks Скачать
1 | 0

28-11-2019 20:33  

Отключить всю рекламу на сайте

    Дорогой пользователь! Огромная просьба, поблагодарите релизера, оцените раздачу и оставьте свои комментарий, если Вы скачали Наркотик через торрент бесплатно! Внесите свою лепту в развитие PiratBit!
    Комментировать посты могут только пользователи прошедшие не сложную регистрацию
    Показать сообщения:    

    Наркотик через торрент
    Скачать бесплатно Наркотик
    Наркотик скачать торрент
    Наркотик смотреть онлайн
    Cкачать фильм Наркотик бесплатно
    Наркотик скачать торрент в хорошем качестве
    Наркотик смотреть онлайн бесплатно в хорошем качестве


    Вы не можете начинать темы
    Вы не можете отвечать на сообщения
    Вы не можете редактировать свои сообщения
    Вы не можете удалять свои сообщения
    Вы не можете голосовать в опросах
    Вы не можете прикреплять файлы к сообщениям
    Вы можете скачивать файлы