2 сезон

iTunes

MVO

1

2 сезон

iTunes

iTunes

1 сезон

RePack

30

Новинка

ВАЖНО

ИГРА 18+

pack

RePack

MK11
pack

Легкие деньги

RePack

jed

RePack

fifa19

RePack

RDR2

RePack

NEED FOR SPEED™ PAYBACK

4 сезон

9 сезон

Бесстыжие 9 сезон

Все сериалы

все сериалы на PB.wtf

RePack

FAR CRY 5

Anonymous, добрый день, мы не успеваем собрать деньги на оплату серверов за декабрь и январь, помогите нам пожалуйста в это трудное время. В качестве благодарности мы отключим Вам всю рекламу на сайте (укажите свой ник в строку Ваше имя)!

×
  
Magnet ссылка

Цена человека / Il capitale umano (Паоло Вирдзи ) [2013, драма, HDRip, Профессиональный (многоголосый) Лицензия pb.wtf

Цена человека через торрент pb.wtf

Размер: 1.45 GB | Добавлен: 5 лет 2 мес. назад | Торрент скачан:252 раза
Скачать  

24-10-2015 08:37 Цена человека Скачать торрент  


Цена человека / Il capitale umano
«Мы всем пожертвовали ради вас. И вами тоже»

ИНФОРМАЦИЯ:
Год выпуска:2013
Страна: Италия, Франция
Жанр: драма
Продолжительность: 01:50:48
Перевод: Профессиональный (многоголосый) [iTunes]
Режиссер: Паоло Вирдзи

В Ролях:


Фабрицио Бентивольо (Dino Ossola), Матильда Джоли (Serena Ossola), Валерия Бруни-Тедески (Carla Bernaschi), Гульельмо Пинелли (Massimiliano Bernaschi), Фабрицио Джифуни (Giovanni Bernaschi), Джиджио Алберти (Giampi), Валерия Голино (Roberta), Сильвия Коэн (Adriana Crosetti), Луиджи Ло Кашио (Donato, il professor Russomanno), Бебо Сторти (L'ispettore), Джованни Анзальдо (Luca Ambrosini), Паоло Пьеробон (Lo zio Davide)

ОПИСАНИЕ:Описание:
Озеро Комо, Италия. Велосипедист был сбит джипом в ночь перед Сочельником. Что произошло в ту ночь? Как изменит эта авария судьбы богатой семьи Бернаски и находящейся на грани банкротства семьи Ровелли?

  • Мировая премьера:3 декабря 2013

    ТЕХ.ДАННЫЕ:
    Качество: HDRip
    Формат: AVI
    Видео кодек: XviD
    Аудио кодек: AC3
    Видео: XviD, 720x304 (2.35:1), 1485 kbps, 23,976 fps, 0,307 bpp
    Аудио: AC3, 6 ch, 384 Кбит/с / 48 kHz



    Код:

    General
    Complete name                            : D:\Торенты\Cena.4eloveka.2013.P.HDRip.1.46GB.avi
    Format                                   : AVI
    Format/Info                              : Audio Video Interleave
    File size                                : 1.46 GiB
    Duration                                 : 1h 50mn
    Overall bit rate                         : 1 885 Kbps
    Writing application                      : VirtualDubMod 1.5.10.2 (build 2540/release)
    Writing library                          : VirtualDubMod build 2540/release

    Video
    ID                                       : 0
    Format                                   : MPEG-4 Visual
    Format profile                           : Advanced Simple@L5
    Format settings, BVOP                    : 2
    Format settings, QPel                    : No
    Format settings, GMC                     : No warppoints
    Format settings, Matrix                  : Default (MPEG)
    Codec ID                                 : XVID
    Codec ID/Hint                            : XviD
    Duration                                 : 1h 50mn
    Bit rate                                 : 1485Kbps
    Width                                    : 720 pixels
    Height                                   : 304 pixels
    Display aspect ratio                     : 2.35:1
    Frame rate                               : 23.976 fps
    Color space                              : YUV
    Chroma subsampling                       : 4:2:0
    Bit depth                                : 8 bits
    Scan type                                : Progressive
    Compression mode                         : Lossy
    Bits/(Pixel*Frame)                       : 0.307
    Stream size                              : 1.25 GiB (85%)
    Writing library                          : XviD 1.2.1 (UTC 2008-12-04)

    Audio
    ID                                       : 1
    Format                                   : AC-3
    Format/Info                              : Audio Coding 3
    Mode extension                           : CM (complete main)
    Codec ID                                 : 2000
    Duration                                 : 1h 50mn
    Bit rate mode                            : Constant
    Bit rate                                 : 384 Kbps
    Channel(s)                               : 6 channels
    Channel positions                        : Front: L R
    Sampling rate                            : 48.0 KHz
    Bit depth                                : 16 bits
    Compression mode                         : Lossy
    Stream size                              : 152 MiB (10%)
    Alignment                                : Split accross interleaves

    Скриншоты:


    © Оформление by Ворон
    pb.wtf



  • Скачать Цена человека через торрент http://pic.kartinco.top/images/6/ordi9.jpg Скачать фильм Цена человека через торрент бесплантно в хорошем качестве Описание:Озеро Комо, Италия. Велосипедист был сбит джипом в ночь перед Сочельником. Что произошло в ту ночь? Как изменит эта авария судьбы ... 10 10 6
    Info! Золотая раздача, скачанное не засчитывается.
    Торрент: Зарегистрирован [2015-10-24 08:37] · скачан: 252 раз
    Статус: √ проверено
    Размер: 1.45 GB
    Как cкачать? Как скачать Цена человека через торрент | UTorrent

    % Раздел Тема Автор DL S | L
    Фильмы [HD 720p, 1080p] (Хороший звук DUB, MVO) [ 10.14 GB ] Цена человека / Il capitale umano [2013 BDRip 1080p Ворон Скачать
    1 | 0

    28-11-2019 20:33  

    Отключить всю рекламу на сайте

      Дорогой пользователь! Огромная просьба, поблагодарите релизера, оцените раздачу и оставьте свои комментарий, если Вы скачали Цена человека через торрент бесплатно! Внесите свою лепту в развитие PiratBit!
      Комментировать посты могут только пользователи прошедшие не сложную регистрацию
      Показать сообщения:    

      Цена человека через торрент
      Скачать бесплатно Цена человека
      Цена человека скачать торрент
      Цена человека смотреть онлайн
      Cкачать фильм Цена человека бесплатно
      Цена человека скачать торрент в хорошем качестве
      Цена человека смотреть онлайн бесплатно в хорошем качестве


      Вы не можете начинать темы
      Вы не можете отвечать на сообщения
      Вы не можете редактировать свои сообщения
      Вы не можете удалять свои сообщения
      Вы не можете голосовать в опросах
      Вы не можете прикреплять файлы к сообщениям
      Вы можете скачивать файлы