Ссылка на приватное зеркало всего за 1$. Внимание количество ограничено!!!

iTunes

iTunes

iTunes

1

iTunes

iTunes

iTunes

iTunes

iTunes

30
pack

$ от Little Big

ВАЖНО

!!Акция!!

Alien_RageХит недели

RePack

Resident Evil 21

ИГРА 18+

pack

RePack

jed

!!Акция!!

Alien_Rage

RePack

fifa19

RePack

Assassins Creed: Odyssey

RePack

NEED FOR SPEED™ PAYBACK

4 сезон

9 сезон

Бесстыжие 9 сезон

Все сериалы

все сериалы на PB.wtf

RePack

FAR CRY 5
  

Конец прекрасной эпохи (Станислав Говорухин) [2015, драма, комедия, WEB-DLRip, [Русский] pb.wtf

Конец прекрасной эпохи через торрент pb.wtf

Размер: 1.46 GB | Добавлен: 4 года 7 мес. назад | Торрент скачан:933 раза
Скачать  

24-10-2015 08:52 Конец прекрасной эпохи Скачать торрент  


Конец прекрасной эпохи


ИНФОРМАЦИЯ:
Год выпуска:2015
Страна: Россия
Жанр: драма, комедия
Продолжительность: 01:34:01
Перевод: Не требуется [Русский]
Режиссер: Станислав Говорухин

В Ролях:


Иван Колесников (Андрей Лентулов), Сергей Гармаш, Федор Добронравов, Дмитрий Астрахан, Юлиан Макаров, Лембит Ульфсак, Александра Нижегородова (буфетчица), Юлия Тройникова (доярка), Тыну Карк (Ульфсак), Сергей Епишев (Григорий Кузин), Владимир Довжик, Карт Таммжарв (Эви)

Описание:
Молодому журналисту и писателю Андрею Лентулову, известному прямотой своих взглядов, свободой мысли и дерзостью суждений, предлагают переехать из Питера в Таллин, чтобы работать в местной газете. Там Андрей с головой уходит в полный противоречий роман с редактором Мариной, бесконечные случайные связи, но, что самое главное - яростное сопротивление системе. Какой была борьба бунтаря, любимца женщин и «самого аморального сотрудника» против жесточайшей цензуры, слежки и ханжества, и кто в ней победил?


ТЕХ.ДАННЫЕ:
Качество: WEB-DLRip
Формат: AVI
Видео: XviD, 720x384 (1.875), 1743 kbps, 25 fps, 0,252 bpp
Аудио: AC3 / 5.1 / 48 kHz / 384 kbps / 16 bit


General
Complete name : D:\Торенты\K0neTs.5reKra7n0ye5ox1.2014.O.WEB-DLRip.avi
Format : AVI
Format/Info : Audio Video Interleave
File size : 1.46 GiB
Duration : 1h 34mn
Overall bit rate : 2 225 Kbps
Writing application : VirtualDubMod 1.5.10.3 | www.virtualdub-fr.org || (build 2550/release)
Writing library : VirtualDubMod build 2550/release

Video
ID : 0
Format : MPEG-4 Visual
Format profile : Advanced Simple@L5
Format settings, BVOP : 2
Format settings, QPel : No
Format settings, GMC : No warppoints
Format settings, Matrix : Default (H.263)
Codec ID : XVID
Codec ID/Hint : XviD
Duration : 1h 34mn
Bit rate : 1 744 Kbps
Width : 720 pixels
Height : 384 pixels
Display aspect ratio : 1.875
Frame rate : 25.000 fps
Color space : YUV
Chroma subsampling : 4:2:0
Bit depth : 8 bits
Scan type : Progressive
Compression mode : Lossy
Bits/(Pixel*Frame) : 0.252
Stream size : 1.15 GiB (78%)
Writing library : XviD 1.2.1 (UTC 2008-12-04)

Audio
ID : 1
Format : AC-3
Format/Info : Audio Coding 3
Mode extension : CM (complete main)
Codec ID : 2000
Duration : 1h 34mn
Bit rate mode : Constant
Bit rate : 384 Kbps
Channel(s) : 6 channels
Channel positions : Front: L C R, Side: L R, LFE
Sampling rate : 48.0 KHz
Bit depth : 16 bits
Compression mode : Lossy
Stream size : 258 MiB (17%)
Alignment : Split accross interleaves
Скриншоты:


© Оформление by Ворон
pb.wtf



Скачать Конец прекрасной эпохи через торрент http://pic.kartinco.top/images/6/ordi9.jpg Скачать фильм Конец прекрасной эпохи через торрент бесплантно в хорошем качестве Описание: Молодому журналисту и писателю Андрею Лентулову, известному прямотой своих взглядов, свободой мысли и дерзостью суждений, ... 9.5 10 20
Торрент: Зарегистрирован [2015-10-24 08:52] · скачан: 933 раз
Статус: √ проверено
Размер: 1.46 GB
Как cкачать? Как скачать Конец прекрасной эпохи через торрент | qTorrent

% Раздел Тема Автор DL S | L
Наши фильмы (HD, WEB-DL 720p, 1080p) [ 3.53 GB ] Конец прекрасной эпохи [2015 WEB-DL 1080p] Оригинал -Lexx- Скачать
1 | 0
Наши новые фильмы 2015 [ 746 MB ] Конец прекрасной эпохи [2015 WEB-DLRip by _Один_777] Оригинал Один 777 Скачать
1 | 0

28-11-2019 20:33  

Отключить всю рекламу на сайте

24-10-2015 09:04 Конец прекрасной эпохи Скачать торрент  

Год выпуска:2014,исправьте .pb.wtf



24-10-2015 09:22 Конец прекрасной эпохи Скачать торрент  

Doctor-ZLO, премьера (РФ)
1 октября 2015.. Спорный вопрос.pb.wtf



24-10-2015 16:19 Конец прекрасной эпохи Скачать торрент  

Ворон писал(а):

Doctor-ZLO, премьера (РФ)
1 октября 2015.. Спорный вопрос.

Извиняюсь ,в кинопоиске исправили на 2015 )))pb.wtf



24-10-2015 20:17 Конец прекрасной эпохи Скачать торрент  

фильм просто шедевр-сюжет -игра актеров-в черном-белом в качестве -картинка такая не оторваться-ох порадовал Говорухин pb.wtf



08-11-2015 01:00 Конец прекрасной эпохи Скачать торрент  

Хороший сценарий и отличная актерская работа.pb.wtf



    Дорогой пользователь! Огромная просьба, поблагодарите релизера, оцените раздачу и оставьте свои комментарий, если Вы скачали Конец прекрасной эпохи через торрент бесплатно! Внесите свою лепту в развитие PiratBit!
    Комментировать посты могут только пользователи прошедшие не сложную регистрацию
    Показать сообщения:    

    Конец прекрасной эпохи через торрент
    Скачать бесплатно Конец прекрасной эпохи
    Конец прекрасной эпохи скачать торрент
    Конец прекрасной эпохи смотреть онлайн
    Cкачать фильм Конец прекрасной эпохи бесплатно
    Конец прекрасной эпохи скачать торрент в хорошем качестве
    Конец прекрасной эпохи смотреть онлайн бесплатно в хорошем качестве


    Вы не можете начинать темы
    Вы не можете отвечать на сообщения
    Вы не можете редактировать свои сообщения
    Вы не можете удалять свои сообщения
    Вы не можете голосовать в опросах
    Вы не можете прикреплять файлы к сообщениям
    Вы можете скачивать файлы