Ссылка на приватное зеркало нашего сайта всего за 1$. Внимание количество ограничено!!!

2 сезон

iTunes

1 сезон

1

2 сезон

2 сезон

iTunes

1 сезон

RePack

30

Ultimate

ВАЖНО

ИГРА 18+

pack

RePack

MK11
pack

Забери бонус

RePack

jed

!!Акция!!

Alien_Rage

RePack

fifa19

RePack

Assassins Creed: Odyssey

RePack

NEED FOR SPEED™ PAYBACK

4 сезон

9 сезон

Бесстыжие 9 сезон

Все сериалы

все сериалы на PB.wtf

RePack

FAR CRY 5
  

Шальное ранение / Blunt Force Trauma (Кен Сэнзел) [2015, боевик, BDRip 1080p, Любительский одноголосый [Xixidok] pb.wtf

Шальное ранение через торрент pb.wtf

Размер: 10.14 GB | Добавлен: 5 лет 1 мес. назад | Торрент скачан:53 раза
Скачать  

24-10-2015 09:15 Шальное ранение Скачать торрент  


Шальное ранение / Blunt Force Trauma


ИНФОРМАЦИЯ:
Год выпуска:2015
Страна: Колумбия
Жанр: боевик
Продолжительность: 01:36:36
Перевод: Любительский одноголосый [Xixidok]
Субтитры: английские, Spanish,
Режиссер: Кен Сэнзел

В Ролях:


Райан Квантен (John), Фрида Пинто (Colt), Микки Рурк (Zorringer), Джон Мак (Reggie), Джейсон Гибсон (Huey), Каролина Гомес (Marla), David Villada (Mob, озвучка), Maruia Shelton (Wesley), Рубен Самора (Silva), Стивен Галарсе (Arch), Tatiana Ronderos (Sandra), Daniel Abril (Rodrigo)

Описание:
Джон и Кольт - очень отчаянная пара и привыкли к опасности. Самое невероятное заключается в том, что в самых опасных и экстремальных ситуациях у них находится время для любви. Они являются одновременно и напарниками и любовниками, но рано или поздно им придется сделать выбор и понять, что для них более важно: деньги или чувства.

  • Мировая премьера:20 июля 2015

    ТЕХ.ДАННЫЕ:
    Качество: BDRip 1080p
    Формат: MKV
    Видео: AVC, 1920x1080 (16:9), 13831 kbps, 23,976 fps, 0,278 bpp
    Аудио №1: русский / AC3 / 5.1 / 48 kHz / 448 kbps / 16 bit ||
    Аудио №2: английский / AC3 / 5.1 / 48 kHz / 448 kbps / 16 bit
    Навигация по главам: есть


    General
    Unique ID : 241172561619316611593170883195022593611 (0xB5702554603120759B025E7B53EBCE4B)
    Complete name : D:\Торенты\Blunt.Force.Trauma.2015.1080p.BDRip.mkv
    Format : Matroska
    Format version : Version 2
    File size : 10.1 GiB
    Duration : 1h 36mn
    Overall bit rate : 15.0 Mbps
    Encoded date : UTC 2015-10-21 15:17:45
    Writing application : mkvmerge v7.8.0 ('River Man') 32bit built on Apr 3 2015 12:11:22
    Writing library : libebml v1.3.1 + libmatroska v1.4.2

    Video
    ID : 1
    Format : AVC
    Format/Info : Advanced Video Codec
    Format profile : High@L4.1
    Format settings, CABAC : Yes
    Format settings, ReFrames : 4 frames
    Codec ID : V_MPEG4/ISO/AVC
    Duration : 1h 36mn
    Bit rate : 13.8 Mbps
    Width : 1 920 pixels
    Height : 1 080 pixels
    Display aspect ratio : 16:9
    Frame rate : 23.976 fps
    Color space : YUV
    Chroma subsampling : 4:2:0
    Bit depth : 8 bits
    Scan type : Progressive
    Bits/(Pixel*Frame) : 0.278
    Stream size : 9.33 GiB (92%)
    Writing library : x264 core 146 r2538 121396c
    Encoding settings : cabac=1 / ref=4 / deblock=1:-3:-3 / analyse=0x3:0x133 / me=umh / subme=11 / psy=1 / psy_rd=1.10:0.25 / mixed_ref=1 / me_range=64 / chroma_me=1 / trellis=2 / 8x8dct=1 / cqm=0 / deadzone=21,11 / fast_pskip=0 / chroma_qp_offset=-4 / threads=12 / lookahead_threads=3 / sliced_threads=0 / nr=0 / decimate=1 / interlaced=0 / bluray_compat=0 / constrained_intra=0 / bframes=16 / b_pyramid=2 / b_adapt=2 / b_bias=0 / direct=3 / weightb=1 / open_gop=0 / weightp=2 / keyint=240 / keyint_min=23 / scenecut=40 / intra_refresh=0 / rc_lookahead=120 / rc=crf / mbtree=1 / crf=16.9 / qcomp=0.60 / qpmin=0 / qpmax=69 / qpstep=4 / vbv_maxrate=62500 / vbv_bufsize=78125 / crf_max=0.0 / nal_hrd=none / filler=0 / ip_ratio=1.40 / aq=2:1.00
    Default : Yes
    Forced : No

    Audio #1
    ID : 2
    Format : AC-3
    Format/Info : Audio Coding 3
    Mode extension : CM (complete main)
    Codec ID : A_AC3
    Duration : 1h 36mn
    Bit rate mode : Constant
    Bit rate : 448 Kbps
    Channel(s) : 6 channels
    Channel positions : Front: L C R, Side: L R, LFE
    Sampling rate : 48.0 KHz
    Bit depth : 16 bits
    Compression mode : Lossy
    Stream size : 310 MiB (3%)
    Title : Xixidoktor
    Language : Russian
    Default : Yes
    Forced : No

    Audio #2
    ID : 3
    Format : AC-3
    Format/Info : Audio Coding 3
    Mode extension : CM (complete main)
    Codec ID : A_AC3
    Duration : 1h 36mn
    Bit rate mode : Constant
    Bit rate : 448 Kbps
    Channel(s) : 6 channels
    Channel positions : Front: L C R, Side: L R, LFE
    Sampling rate : 48.0 KHz
    Bit depth : 16 bits
    Compression mode : Lossy
    Stream size : 310 MiB (3%)
    Language : English
    Default : No
    Forced : No

    Text #1
    ID : 4
    Format : PGS
    Codec ID : S_HDMV/PGS
    Codec ID/Info : The same subtitle format used on BDs/HD-DVDs
    Language : English
    Default : No
    Forced : No

    Text #2
    ID : 5
    Format : PGS
    Codec ID : S_HDMV/PGS
    Codec ID/Info : The same subtitle format used on BDs/HD-DVDs
    Language : Spanish
    Default : No
    Forced : No

    Menu
    00:00:00.000 : en:Chapter 1
    00:08:00.688 : en:Chapter 2
    00:17:26.378 : en:Chapter 3
    00:23:36.289 : en:Chapter 4
    00:34:17.138 : en:Chapter 5
    00:38:29.598 : en:Chapter 6
    00:49:50.529 : en:Chapter 7
    00:58:16.826 : en:Chapter 8
    01:07:25.750 : en:Chapter 9
    01:14:44.771 : en:Chapter 10
    01:25:33.294 : en:Chapter 11
    01:32:14.946 : en:Chapter 12
    01:36:50.971 : en:Chapter 13
    Скриншоты:


    © Оформление by Ворон
    pb.wtf



  • Скачать Шальное ранение через торрент http://pic.kartinco.top/images/6/ordi9.jpg Скачать фильм Шальное ранение через торрент бесплантно в хорошем качестве Описание: Джон и Кольт - очень отчаянная пара и привыкли к опасности. Самое невероятное заключается в том, что в самых опасных и ... 6.5 10 4
    Торрент: Зарегистрирован [2015-10-24 09:15] · скачан: 53 раз
    Статус: T временная
    Размер: 10.14 GB
    Как cкачать? Как скачать Шальное ранение через торрент | qTorrent

    % Раздел Тема Автор DL S | L
    T Фильмы 2015 (Звук TS, Cam, VO, DVO) [ 1.37 GB ] Шальное ранение / Blunt Force Trauma [2015 HDRip Любительский одноголосый [Xixidok] Ворон Скачать
    1 | 0

    28-11-2019 20:33  

    Отключить всю рекламу на сайте

      Дорогой пользователь! Огромная просьба, поблагодарите релизера, оцените раздачу и оставьте свои комментарий, если Вы скачали Шальное ранение через торрент бесплатно! Внесите свою лепту в развитие PiratBit!
      Комментировать посты могут только пользователи прошедшие не сложную регистрацию
      Показать сообщения:    

      Шальное ранение через торрент
      Скачать бесплатно Шальное ранение
      Шальное ранение скачать торрент
      Шальное ранение смотреть онлайн
      Cкачать фильм Шальное ранение бесплатно
      Шальное ранение скачать торрент в хорошем качестве
      Шальное ранение смотреть онлайн бесплатно в хорошем качестве


      Вы не можете начинать темы
      Вы не можете отвечать на сообщения
      Вы не можете редактировать свои сообщения
      Вы не можете удалять свои сообщения
      Вы не можете голосовать в опросах
      Вы не можете прикреплять файлы к сообщениям
      Вы можете скачивать файлы