Ссылка на приватное зеркало нашего сайта всего за 1$. Внимание количество ограничено!!!

2 сезон

iTunes

1 сезон

1

iTunes

iTunes

iTunes

1 сезон

RePack

30

ИГРА 18+

pack

ВАЖНО

!!Акция!!

Alien_RageХит недели

RePack

MK11
pack

Забери бонус

RePack

jed

!!Акция!!

Alien_Rage

RePack

fifa19

RePack

Assassins Creed: Odyssey

RePack

NEED FOR SPEED™ PAYBACK

4 сезон

9 сезон

Бесстыжие 9 сезон

Все сериалы

все сериалы на PB.wtf

RePack

FAR CRY 5
  

Чужой против Хищника / AVP: Alien vs. Predator (Пол У. С. Андерсон / Paul W.S. Anderson) [2004, фантастика, боевик, триллер, BDRip 720p от potroks] [Расширенная версия] Dub + MVO + AVO pb.wtf

Чужой против Хищника через торрент pb.wtf

Размер: 7.04 GB | Добавлен: 5 лет назад | Торрент скачан:332 раза
Скачать  

24-10-2015 11:05 Чужой против Хищника Скачать торрент  

Чужой против Хищника / AVP: Alien vs. Predator
«Кто бы ни победил - человечество проиграет...»
Год выпуска: 2004
Страна: США, Великобритания, Чехия, Канада, Германия / 20th Century Fox Film Corporation...
Жанр: фантастика, боевик, триллер, приключения
Продолжительность: 01:48:40
Перевод#1: Дубляж [BD CEE]
Перевод#2: Профессиональный (многоголосый) [Киномания]
Перевод#3: Авторский (одноголосый) [А.Гаврилов]
Субтитры: русские (Forced), русские (Kinomaniya), русские (Blu-Ray), английские
Навигация по главам: есть
Режиссер: Пол У. С. Андерсон / Paul W.S. Anderson
В ролях:

Санаа Лэтэн (Alexa Woods), Рауль Бова (Sebastian de Rosa), Лэнс Хенриксен (Charles Bishop Weyland), Юэн Бремнер (Graeme Miller), Колин Сэлмон (Maxwell Stafford), Томми Флэнаган (Mark Verheiden), Джозеф Рай (Joe Connors), Агат Де Ла Булае (Adele Rousseau), Карстен Норгаард (Rusten Quinn), Сэм Тротон (Thomas Parks), Петр Якл (Stone), Павел Бездек (Bass)
Описание: Наши дни. Группа ученых отправляется в Антарктиду, чтобы отыскать колыбель цивилизации, царившей на Земле многие тысячелетия назад. Под толщей льда они находят пирамиды, в которых обнаруживают человеческие скелеты и следы жизнедеятельности чужих.
Однако они еще не знают, что уже находятся под колпаком у хозяев этого города - хищников, и их дни сочтены. Человеческая приманка поможет хищникам, наконец, завершить войну двух космических цивилизаций...

Качество: BDRip 720p
Формат: MKV
Видео кодек: AVC
Аудио кодек: AC3, DTS
Видео: 1280x546 (2.35:1), 6777 kbps, 23,976 fps, 0,404 bit/pixel
Аудио №1: DTS / 5.1 / 48 kHz / 755 kbps / 24 bit | DUB + MVO
Аудио №2: AC3 / 5.1 / 48 kHz / 448 kbps / 16 bit | MVO
Аудио №3: AC3 / 5.1 / 48 kHz / 640 kbps / 16 bit | AVO
Аудио №4: AC3 / 5.1 / 48 kHz / 640 kbps / 16 bit | ENG

Релиз группы:
Автор рипа: potroks

Код:

General
Unique ID                                : 171630354642718083601550059904480266220 (0x811ECDCED468EBF4B0811AECA15F47EC)
Complete name                            : N:\Фантастика\Chuzhoy.Protiv.Hischnika.2004.Extended.DUB.MVO.AVO.ENG.BDRip.720p.-HELLYWOOD.mkv
Format                                   : Matroska
Format version                           : Version 4 / Version 2
File size                                : 7.04 GiB
Duration                                 : 1h 48mn
Overall bit rate                         : 9 274 Kbps
Movie name                               : AVP: Alien vs. Predator [Extended] (2004) - HELLYWOOD
Encoded date                             : UTC 2010-02-22 21:41:31
Writing application                      : mkvmerge v5.8.0 ('No Sleep / Pillow') built on Sep 30 2012 10:57:14
Writing library                          : libebml v1.3.0 + libmatroska v1.4.0

Video
ID                                       : 1
Format                                   : AVC
Format/Info                              : Advanced Video Codec
Format profile                           : High@L4.1
Format settings, CABAC                   : Yes
Format settings, ReFrames                : 9 frames
Codec ID                                 : V_MPEG4/ISO/AVC
Duration                                 : 1h 48mn
Bit rate                                 : 6 777 Kbps
Width                                    : 1 280 pixels
Height                                   : 546 pixels
Display aspect ratio                     : 2.35:1
Frame rate                               : 23.976 fps
Color space                              : YUV
Chroma subsampling                       : 4:2:0
Bit depth                                : 8 bits
Scan type                                : Progressive
Bits/(Pixel*Frame)                       : 0.404
Stream size                              : 5.02 GiB (71%)
Title                                    : potroks
Writing library                          : x264 core 146 r2538 121396c
Encoding settings                        : cabac=1 / ref=9 / deblock=1:-3:-3 / analyse=0x3:0x113 / me=umh / subme=11 / psy=1 / psy_rd=1.00:0.05 / mixed_ref=1 / me_range=48 / chroma_me=1 / trellis=2 / 8x8dct=1 / cqm=0 / deadzone=21,11 / fast_pskip=0 / chroma_qp_offset=-3 / threads=9 / lookahead_threads=2 / sliced_threads=0 / nr=0 / decimate=0 / interlaced=0 / bluray_compat=0 / constrained_intra=0 / bframes=10 / b_pyramid=2 / b_adapt=2 / b_bias=0 / direct=3 / weightb=1 / open_gop=0 / weightp=2 / keyint=250 / keyint_min=23 / scenecut=40 / intra_refresh=0 / rc_lookahead=60 / rc=2pass / mbtree=0 / bitrate=6777 / ratetol=1.0 / qcomp=0.70 / qpmin=0 / qpmax=69 / qpstep=4 / cplxblur=20.0 / qblur=0.5 / vbv_maxrate=14000 / vbv_bufsize=14000 / nal_hrd=none / filler=0 / ip_ratio=1.35 / pb_ratio=1.25 / aq=1:0.80
Language                                 : English
Default                                  : Yes
Forced                                   : No

Audio #1
ID                                       : 2
Format                                   : DTS
Format/Info                              : Digital Theater Systems
Codec ID                                 : A_DTS
Duration                                 : 1h 48mn
Bit rate mode                            : Constant
Bit rate                                 : 755 Kbps
Channel(s)                               : 6 channels
Channel positions                        : Front: L C R, Side: L R, LFE
Sampling rate                            : 48.0 KHz
Bit depth                                : 24 bits
Compression mode                         : Lossy
Stream size                              : 586 MiB (8%)
Title                                    : Dub | DTS 5.1 @ 768 kbps - Blu-Ray CEE + MVO
Language                                 : Russian
Default                                  : Yes
Forced                                   : No

Audio #2
ID                                       : 3
Format                                   : AC-3
Format/Info                              : Audio Coding 3
Mode extension                           : CM (complete main)
Codec ID                                 : A_AC3
Duration                                 : 1h 48mn
Bit rate mode                            : Constant
Bit rate                                 : 448 Kbps
Channel(s)                               : 6 channels
Channel positions                        : Front: L C R, Side: L R, LFE
Sampling rate                            : 48.0 KHz
Bit depth                                : 16 bits
Compression mode                         : Lossy
Stream size                              : 348 MiB (5%)
Title                                    : MVO | DD 5.1 @ 448 kbps - Kinomaniya
Language                                 : Russian
Default                                  : No
Forced                                   : No

Audio #3
ID                                       : 4
Format                                   : AC-3
Format/Info                              : Audio Coding 3
Mode extension                           : CM (complete main)
Codec ID                                 : A_AC3
Duration                                 : 1h 48mn
Bit rate mode                            : Constant
Bit rate                                 : 640 Kbps
Channel(s)                               : 6 channels
Channel positions                        : Front: L C R, Side: L R, LFE
Sampling rate                            : 48.0 KHz
Bit depth                                : 16 bits
Compression mode                         : Lossy
Stream size                              : 497 MiB (7%)
Title                                    : AVO | DD 5.1 @ 640 kbps - A.Gavrilov
Language                                 : Russian
Default                                  : No
Forced                                   : No

Audio #4
ID                                       : 5
Format                                   : AC-3
Format/Info                              : Audio Coding 3
Mode extension                           : CM (complete main)
Codec ID                                 : A_AC3
Duration                                 : 1h 48mn
Bit rate mode                            : Constant
Bit rate                                 : 640 Kbps
Channel(s)                               : 6 channels
Channel positions                        : Front: L C R, Side: L R, LFE
Sampling rate                            : 48.0 KHz
Bit depth                                : 16 bits
Compression mode                         : Lossy
Stream size                              : 497 MiB (7%)
Title                                    : Original | DD 5.1 @ 640 kbps
Language                                 : English
Default                                  : No
Forced                                   : No

Text #1
ID                                       : 6
Format                                   : UTF-8
Codec ID                                 : S_TEXT/UTF8
Codec ID/Info                            : UTF-8 Plain Text
Title                                    : Forced
Language                                 : Russian
Default                                  : Yes
Forced                                   : No

Text #2
ID                                       : 7
Format                                   : UTF-8
Codec ID                                 : S_TEXT/UTF8
Codec ID/Info                            : UTF-8 Plain Text
Title                                    : Kinomaniya
Language                                 : Russian
Default                                  : No
Forced                                   : No

Text #3
ID                                       : 8
Format                                   : UTF-8
Codec ID                                 : S_TEXT/UTF8
Codec ID/Info                            : UTF-8 Plain Text
Title                                    : Blu-Ray
Language                                 : Russian
Default                                  : No
Forced                                   : No

Text #4
ID                                       : 9
Format                                   : UTF-8
Codec ID                                 : S_TEXT/UTF8
Codec ID/Info                            : UTF-8 Plain Text
Title                                    : Full
Language                                 : English
Default                                  : No
Forced                                   : No

Menu
00:00:00.000                             : en:Killers in the Cold
00:02:18.346                             : en:Something in Sector 14
00:04:06.204                             : en:Weyland's Offer
00:08:36.140                             : en:Below the Ice
00:12:59.653                             : en:The Better Chance
00:15:41.607                             : en:Three Simple Rules
00:19:06.436                             : en:Razorback Point
00:23:22.109                             : en:The Tunnel
00:26:21.705                             : en:Going Down
00:28:43.888                             : en:The Pyramid
00:30:39.420                             : en:Awakening
00:33:35.805                             : en:First Blood
00:35:48.896                             : en:Chosen Ones
00:41:39.955                             : en:The Sarcophagus
00:44:34.004                             : en:The Spawning
00:49:33.011                             : en:Prey
00:53:54.814                             : en:Death Maze
00:57:45.378                             : en:Battle Zone
01:03:10.328                             : en:Weyland's Last Stand
01:05:25.921                             : en:Rite of Passage
01:08:36.153                             : en:Gods and Monsters
01:11:59.648                             : en:The Enemy of My Enemy
01:13:36.995                             : en:Alone
01:15:41.703                             : en:Two Warriors
01:18:50.517                             : en:Allies
01:21:48.612                             : en:The Nest
01:24:44.954                             : en:The Fire Down Below
01:28:21.546                             : en:Blood of the Kill
01:29:41.292                             : en:The Bitch Is Back
01:33:16.591                             : en:A Warrior's Token
01:36:01.589                             : en:The Beast Within
01:36:35.623                             : en:End Titles

pb.wtf



Скачать Чужой против Хищника через торрент http://i48.fastpic.ru/big/2015/1024/b2/c54048822fbaafad1788045532212cb2.png Скачать фильм Чужой против Хищника через торрент бесплантно в хорошем качестве Описание: Наши дни. Группа ученых отправляется в Антарктиду, чтобы отыскать колыбель цивилизации, царившей на Земле многие тысячелетия ... 10 10 16
Торрент: Зарегистрирован [2015-10-24 11:05] · скачан: 332 раз
Статус: √ проверено
Размер: 7.04 GB
Как cкачать? Как скачать Чужой против Хищника через торрент | qTorrent

% Раздел Тема Автор DL S | L
Фильмы [HD 720p, 1080p] (Хороший звук DUB, MVO) [ 15.73 GB ] Чужой против Хищника / AVP: Alien vs. Predator [2004 BDRip 1080p] DUB + MVO + AVO [Расширенная версия] sheker187 Скачать
1 | 0
Фильмы 2001-2005 [ 3.61 GB ] Чужой против Хищника / Alien vs. Predator [2004 WEB-DLRip-AVC Dub MVO 2 x DVO 4 x AVO][Open Matte] от ExKinoRay morfyi Скачать
1 | 1
T Релизы по Парсеру [Игры, Сериалы и Фильмы и другое...] [ 3.13 GB ] Чужие против Хищника: Реквием / Aliens vs Predator [2007 Германия Чехия BDRip-AVC] [Unrated] Dub+MVO+AVO+ Sub RusEng + Original sanekbest1 Скачать
1 | 0

28-11-2019 20:33  

Отключить всю рекламу на сайте

24-10-2015 15:52 Чужой против Хищника Скачать торрент  

А что расширили то можно узнать?pb.wtf



25-10-2015 16:53 Чужой против Хищника Скачать торрент  

даpb.wtf



    Дорогой пользователь! Огромная просьба, поблагодарите релизера, оцените раздачу и оставьте свои комментарий, если Вы скачали Чужой против Хищника через торрент бесплатно! Внесите свою лепту в развитие PiratBit!
    Комментировать посты могут только пользователи прошедшие не сложную регистрацию
    Показать сообщения:    

    Чужой против Хищника через торрент
    Скачать бесплатно Чужой против Хищника
    Чужой против Хищника скачать торрент
    Чужой против Хищника смотреть онлайн
    Cкачать фильм Чужой против Хищника бесплатно
    Чужой против Хищника скачать торрент в хорошем качестве
    Чужой против Хищника смотреть онлайн бесплатно в хорошем качестве


    Вы не можете начинать темы
    Вы не можете отвечать на сообщения
    Вы не можете редактировать свои сообщения
    Вы не можете удалять свои сообщения
    Вы не можете голосовать в опросах
    Вы не можете прикреплять файлы к сообщениям
    Вы можете скачивать файлы