Ссылка на приватное зеркало нашего сайта всего за 1$. Внимание количество ограничено!!!

2 сезон

iTunes

1 сезон

1

iTunes

iTunes

iTunes

1 сезон

RePack

30

ИГРА 18+

pack

ВАЖНО

!!Акция!!

Alien_RageХит недели

RePack

MK11
pack

Забери бонус

RePack

jed

!!Акция!!

Alien_Rage

RePack

fifa19

RePack

Assassins Creed: Odyssey

RePack

NEED FOR SPEED™ PAYBACK

4 сезон

9 сезон

Бесстыжие 9 сезон

Все сериалы

все сериалы на PB.wtf

RePack

FAR CRY 5
  

Квант милосердия / Quantum of Solace (Марк Форстер) [2008, боевик, приключения, BDRip 1080p, Дубляж] pb.wtf

Квант милосердия через торрент pb.wtf

Размер: 11.55 GB | Добавлен: 4 года 11 мес. назад | Торрент скачан:143 раза
Скачать  

24-10-2015 18:32 Квант милосердия Скачать торрент  


Квант милосердия / Quantum of Solace
««У тебя всего один выстрел. Сделай глубокий вздох. Пусть выстрел будет решающим»»

ИНФОРМАЦИЯ:
Год выпуска:2008
Страна: Великобритания, США
Жанр: боевик, приключения
Продолжительность: 01:46:14
Перевод: Дубляж
Субтитры: русские (Forced), русские (Full), английские (Full),
Режиссер: Марк Форстер

В Ролях:


Дэниэл Крэйг (James Bond), Ольга Куриленко (Camille), Матьё Амальрик (Dominic Greene), Джуди Денч (M), Джанкарло Джаннини (Rene Mathis), Джемма Артертон (Strawberry Fields), Джеффри Райт (Felix Leiter), Дэвид Харбор (Gregg Beam), Еспер Кристенсен (Mr. White), Анатоль Таубман (Elvis), Рори Киннер (Bill Tanner), Тим Пиготт-Смит (Foreign Secretary)

Описание:
После предательства Веспер, агент 007 борется с желанием превратить последнее задание в личную вендетту. В поисках истины, Бонд и М допрашивают Мистера Уайта, от которого узнают, что шантажировавшая Веспер Организация намного сложнее и опаснее, чем можно было подумать.

  • Мировая премьера:29 октября 2008

    ТЕХ.ДАННЫЕ:
    Качество: BDRip 1080p
    Формат: MKV
    Видео: AVC, 1920x800 (2.40:1), 14481 kbps, 23,976 fps, 0,393 bpp
    Аудио №1: русский / AC3 / 5.1 / 48 kHz / 448 kbps / 16 bit ||
    Аудио №2: английский / AC3 / 5.1 / 48 kHz / 640 kbps / 16 bit
    Навигация по главам: есть


    General
    Unique ID : 219187025510371941801201148535279116159 (0xA4E5E2B5B58190F58BA64C8DC56ADF7F)
    Complete name : D:\Торенты\Quantum.of.Solace.2008.BDRip.1080p.mkv
    Format : Matroska
    Format version : Version 2
    File size : 11.5 GiB
    Duration : 1h 46mn
    Overall bit rate : 15.6 Mbps
    Movie name : Квант милосердия (2008) BDRip (1080p)
    Encoded date : UTC 2015-10-23 07:48:50
    Writing application : mkvmerge v5.8.0 ('No Sleep / Pillow') built on Sep 2 2012 15:37:04
    Writing library : libebml v1.2.3 + libmatroska v1.3.0

    Video
    ID : 1
    Format : AVC
    Format/Info : Advanced Video Codec
    Format profile : High@L4.1
    Format settings, CABAC : Yes
    Format settings, ReFrames : 5 frames
    Codec ID : V_MPEG4/ISO/AVC
    Duration : 1h 46mn
    Bit rate : 14.5 Mbps
    Width : 1 920 pixels
    Height : 800 pixels
    Display aspect ratio : 2.40:1
    Frame rate : 23.976 fps
    Color space : YUV
    Chroma subsampling : 4:2:0
    Bit depth : 8 bits
    Scan type : Progressive
    Bits/(Pixel*Frame) : 0.393
    Stream size : 10.5 GiB (91%)
    Title : Release by Alex260680
    Writing library : x264 core 148 r2597 e86f3a1
    Encoding settings : cabac=1 / ref=5 / deblock=1:-3:-3 / analyse=0x3:0x133 / me=umh / subme=11 / psy=1 / psy_rd=1.05:0.15 / mixed_ref=1 / me_range=32 / chroma_me=1 / trellis=2 / 8x8dct=1 / cqm=0 / deadzone=21,11 / fast_pskip=0 / chroma_qp_offset=-3 / threads=6 / lookahead_threads=1 / sliced_threads=0 / nr=0 / decimate=0 / interlaced=0 / bluray_compat=0 / constrained_intra=0 / bframes=12 / b_pyramid=2 / b_adapt=2 / b_bias=0 / direct=3 / weightb=1 / open_gop=0 / weightp=2 / keyint=240 / keyint_min=23 / scenecut=40 / intra_refresh=0 / rc=2pass / mbtree=0 / bitrate=14481 / ratetol=1.0 / qcomp=0.60 / qpmin=0 / qpmax=69 / qpstep=4 / cplxblur=20.0 / qblur=0.5 / ip_ratio=1.40 / pb_ratio=1.30 / aq=1:0.90
    Language : English
    Default : Yes
    Forced : No

    Audio #1
    ID : 2
    Format : AC-3
    Format/Info : Audio Coding 3
    Mode extension : CM (complete main)
    Codec ID : A_AC3
    Duration : 1h 46mn
    Bit rate mode : Constant
    Bit rate : 448 Kbps
    Channel(s) : 6 channels
    Channel positions : Front: L C R, Side: L R, LFE
    Sampling rate : 48.0 KHz
    Bit depth : 16 bits
    Compression mode : Lossy
    Stream size : 340 MiB (3%)
    Title : DUB
    Language : Russian
    Default : Yes
    Forced : No

    Audio #2
    ID : 3
    Format : AC-3
    Format/Info : Audio Coding 3
    Mode extension : CM (complete main)
    Codec ID : A_AC3
    Duration : 1h 46mn
    Bit rate mode : Constant
    Bit rate : 640 Kbps
    Channel(s) : 6 channels
    Channel positions : Front: L C R, Side: L R, LFE
    Sampling rate : 48.0 KHz
    Bit depth : 16 bits
    Compression mode : Lossy
    Stream size : 486 MiB (4%)
    Title : Original
    Language : English
    Default : No
    Forced : No

    Text #1
    ID : 4
    Format : UTF-8
    Codec ID : S_TEXT/UTF8
    Codec ID/Info : UTF-8 Plain Text
    Title : Forced
    Language : Russian
    Default : Yes
    Forced : No

    Text #2
    ID : 5
    Format : UTF-8
    Codec ID : S_TEXT/UTF8
    Codec ID/Info : UTF-8 Plain Text
    Title : Full
    Language : Russian
    Default : No
    Forced : No

    Text #3
    ID : 6
    Format : UTF-8
    Codec ID : S_TEXT/UTF8
    Codec ID/Info : UTF-8 Plain Text
    Title : Full
    Language : English
    Default : No
    Forced : No

    Menu
    00:00:00.000 : en:Chapter 01
    00:04:10.125 : en:Chapter 02
    00:07:27.530 : en:Chapter 03
    00:10:20.537 : en:Chapter 04
    00:15:16.833 : en:Chapter 05
    00:17:47.650 : en:Chapter 06
    00:20:24.306 : en:Chapter 07
    00:22:51.370 : en:Chapter 08
    00:26:28.420 : en:Chapter 09
    00:29:06.370 : en:Chapter 10
    00:33:16.912 : en:Chapter 11
    00:35:48.104 : en:Chapter 12
    00:39:02.131 : en:Chapter 13
    00:44:19.156 : en:Chapter 14
    00:47:21.797 : en:Chapter 15
    00:52:30.898 : en:Chapter 16
    00:56:29.011 : en:Chapter 17
    01:01:17.173 : en:Chapter 18
    01:04:51.012 : en:Chapter 19
    01:11:04.802 : en:Chapter 20
    01:12:34.433 : en:Chapter 21
    01:17:16.423 : en:Chapter 22
    01:21:05.694 : en:Chapter 23
    01:24:17.719 : en:Chapter 24
    01:29:19.938 : en:Chapter 25
    01:36:15.520 : en:Chapter 26
    01:37:59.248 : en:Chapter 27
    01:41:39.135 : en:Chapter 28
    Скриншоты:


    © Оформление by Ворон
    pb.wtf



  • Скачать Квант милосердия через торрент http://pic.kartinco.top/images/6/ordi9.jpg Скачать фильм Квант милосердия через торрент бесплантно в хорошем качестве Описание: После предательства Веспер, агент 007 борется с желанием превратить последнее задание в личную вендетту. В поисках истины, Бонд и ... 10 10 5
    Info! Золотая раздача, скачанное не засчитывается.
    Торрент: Зарегистрирован [2015-10-24 18:32] · скачан: 143 раз
    Статус: √ проверено
    Размер: 11.55 GB
    Как cкачать? Как скачать Квант милосердия через торрент | qTorrent

    % Раздел Тема Автор DL S | L
    Ultra HD (UHD: 2K, 4K, 8K) — видео сверхвысокой чёткости [ 59.11 GB ] Джеймс Бонд 007: Квант милосердия / James Bond 007: Quantum of Solace [2008 UHD BDRemux 2160p] [Dolby Vision] DUB [] +2xAVO bober100 Скачать
    1 | 0
    Ultra HD (UHD: 2K, 4K, 8K) — видео сверхвысокой чёткости [ 46.79 GB ] Джеймс Бонд 007: Квант милосердия / James Bond 007: Quantum of Solace [2008 UHD BDRemux 2160p] [Dolby Vision TV] DUB [] bober100 Скачать
    1 | 0
    Ultra HD (UHD: 2K, 4K, 8K) — видео сверхвысокой чёткости [ 50.02 GB ] Джеймс Бонд 007: Квант милосердия / James Bond 007: Quantum of Solace [2008 UHD BDRemux 2160p] DUB [] bober100 Скачать
    1 | 0
    Фильмы 2006-2008 [ 1.46 GB ] 007: Квант милосердия / Quantum of Solace [2008 BDRip / лицензия] Mr. Freeman Скачать
    2 | 0
    Фильмы 2006-2008 [ 699 MB ] Джеймс Бонд 007: Квант милосердия / James Bond 007: Quantum of Solace [2008 DVDRip] Hrayr-96 Скачать
    1 | 0
    Action FPS (1st Person) [ 4.36 GB ] 007: Квант Милосердия / Quantum of Solace: The Game [RePack RUS/ENG Activision] IZnoGood Скачать
    1 | 0
    Action FPS (1st Person) [ 4.59 GB ] Джеймс Бонд 007: Квант милосердия / James Bond 007: Quantum of Solace [RURepackShooter Action TPS / 3rd Person] от R.G. Catalyst -=BIGBOSS=- Скачать
    1 | 0

    28-11-2019 20:33  

    Отключить всю рекламу на сайте

      Дорогой пользователь! Огромная просьба, поблагодарите релизера, оцените раздачу и оставьте свои комментарий, если Вы скачали Квант милосердия через торрент бесплатно! Внесите свою лепту в развитие PiratBit!
      Комментировать посты могут только пользователи прошедшие не сложную регистрацию
      Показать сообщения:    

      Квант милосердия через торрент
      Скачать бесплатно Квант милосердия
      Квант милосердия скачать торрент
      Квант милосердия смотреть онлайн
      Cкачать фильм Квант милосердия бесплатно
      Квант милосердия скачать торрент в хорошем качестве
      Квант милосердия смотреть онлайн бесплатно в хорошем качестве


      Вы не можете начинать темы
      Вы не можете отвечать на сообщения
      Вы не можете редактировать свои сообщения
      Вы не можете удалять свои сообщения
      Вы не можете голосовать в опросах
      Вы не можете прикреплять файлы к сообщениям
      Вы можете скачивать файлы