Ссылка на приватное зеркало нашего сайта всего за 1$. Внимание количество ограничено!!!

2 сезон

iTunes

1 сезон

1

2 сезон

2 сезон

iTunes

1 сезон

RePack

30

Новинка

ВАЖНО

ИГРА 18+

pack

RePack

MK11
pack

Забери бонус

RePack

jed

!!Акция!!

Alien_Rage

RePack

fifa19

RePack

Assassins Creed: Odyssey

RePack

NEED FOR SPEED™ PAYBACK

4 сезон

9 сезон

Бесстыжие 9 сезон

Все сериалы

все сериалы на PB.wtf

RePack

FAR CRY 5
  

Слепая зона / Слепое пятно / Blindspot / Сезон: 1 / Серии 1-23 из 23 (Марк Пеллингтон) [2015, драма, триллер, WEB-DLRip] [MVO] (AlexFilm) pb.wtf

Слепая зона через торрент pb.wtf

Качают: 1 [ 1 MB/s ]
Размер: 11.7 GB | Добавлен: 4 года 2 мес. назад | Торрент скачан:596 раз
Скачать  

24-10-2015 20:51 Слепая зона Скачать торрент  



Слепое пятно / Blindspot

Год выпуска:
2015
Страна: США
Жанр: драма, триллер
Продолжительность: 1 x ~ 00:43:00
Перевод: Профессиональный (многоголосый, закадровый) [AlexFilm]
Оригинальная дорожка : английский

Режиссёр: Марк Пеллингтон

В ролях: Джейми Александер, Салливан Степлтон, Одри Эспарза, Роб Браун, Марко Кака, Орелин Гайя, Карл Ли, Ноэль Рамос, Юн-И Чанг, Саманта Риверз Коул


В центре сюжета находится потерявшая свою память девушка, которая оказывается в центре расследования после того, как смогла выбраться из брезентового мешка в самом центе Нью-Йорк Сити на Таймс Сквер. Не имея ни малейшего представления о том, кто она такая, девушка не знает, что обозначают многочисленные загадочные татуировки, которыми покрыто все ее тело. Когда выясняется, что татуировки являются чем-то вроде дорожной карты, к делу подключается ФБР.



Качество: WEB-DLRip
Формат: AVI
Видео кодек: XvID
Аудио кодек: MP3
Видео: XvID, 720x400 (1.80:1), 23,976 fps, XviD ~1400 kbps avg, 0.20 bit/pixel
Аудио Rus: 48 kHz, MPEG Layer 3, 2 ch, ~128.00 kbps |AlexFilm|
Аудио Eng: 48 kHz, MPEG Layer 3, 2 ch, ~128.00 kbps |Original|

Релиз --

Перевод: Константин Кривоногов
Монтаж и сведение звука: Михаил Шорыгин
Роли озвучивали:
Евгения Тихонова
Михаил Суслов
Константин Погодаев
Андрей Стакионис
Общее
Полное имя : D:\Слепая зона (сезон 1) Blindspot (2015) WEB-DLRip - AlexFilm\Blindspot.s01e01.WEB-DLRip.Rus.Eng.AlexFilm.avi
Формат : AVI
Формат/Информация : Audio Video Interleave
Размер файла : 522 Мбайт
Продолжительность : 43 м.
Общий поток : 1684 Кбит/сек
Название фильма : Blindspot. 1x01 @ AlexFilm
Программа кодирования : VirtualDubMod 1.5.10.2 (build 2540/release)
Библиотека кодирования : VirtualDubMod build 2540/release

Видео
Идентификатор : 0
Формат : MPEG-4 Visual
Профиль формата : Advanced Simple@L5
Параметр BVOP формата : Нет
Параметр QPel формата : Нет
Параметр GMC формата : Без точки перехода
Параметр матрицы формата : Default (H.263)
Идентификатор кодека : XVID
Идентификатор кодека/Подсказка : XviD
Продолжительность : 43 м.
Битрейт : 1414 Кбит/сек
Ширина : 720 пикселей
Высота : 400 пикселей
Соотношение сторон : 16:9
Частота кадров : 23,976 кадра/сек
Цветовое пространство : YUV
Субдискретизация насыщенности : 4:2:0
Битовая глубина : 8 бит
Тип развёртки : Прогрессивная
Метод сжатия : С потерями
Бит/(Пиксели*Кадры) : 0.205
Размер потока : 439 Мбайт (84%)
Библиотека кодирования : XviD 73

Аудио #1
Идентификатор : 1
Формат : MPEG Audio
Версия формата : Version 1
Профиль формата : Layer 3
Режим : Joint stereo
Расширение режима : MS Stereo
Идентификатор кодека : 55
Идентификатор кодека/Подсказка : MP3
Продолжительность : 43 м.
Вид битрейта : Постоянный
Битрейт : 128 Кбит/сек
Каналы : 2 канала
Частота : 48,0 КГц
Метод сжатия : С потерями
Размер потока : 39,7 Мбайт (8%)
Выравнивание : Соединение по промежуткам
Продолжительность промежутка : 42 мс. (1,00 видеокадр)
Время предзагрузки промежутка : 504 мс.
Заголовок : Russian (AlexFilm)
Библиотека кодирования : LAME3.99r
Настройки программы : -m j -V 4 -q 3 -lowpass 18 -b 128

Аудио #2
Идентификатор : 2
Формат : MPEG Audio
Версия формата : Version 1
Профиль формата : Layer 3
Режим : Joint stereo
Расширение режима : MS Stereo
Идентификатор кодека : 55
Идентификатор кодека/Подсказка : MP3
Продолжительность : 43 м.
Вид битрейта : Постоянный
Битрейт : 128 Кбит/сек
Каналы : 2 канала
Частота : 48,0 КГц
Метод сжатия : С потерями
Размер потока : 39,7 Мбайт (8%)
Выравнивание : Соединение по промежуткам
Продолжительность промежутка : 42 мс. (1,00 видеокадр)
Время предзагрузки промежутка : 504 мс.
Заголовок : English
Библиотека кодирования : LAME3.90.3
Внимание! Раздача ведётся путём добавления новых серий; при каждом добавлении создётся новый торрент. Чтобы начать докачку новой серии, пользователям необходимо сделать следующее:

Остановить скачивание.
Удалить старый торрент у себя из клиента (старые серии удалять не надо).
Скачать новый торрент и запустить его у себя в клиенте вместо старого, при этом указать клиенту путь в старую папку куда и должно происходить скачивание новых серий.Ваш клиент при этом должен произвести хеширование (проверку) старой папки (если не производит сам - помогите ему сделать это), и будет докачивать только те серии которых у вас ещё нет. Старые серии при этом не удаляются, а продолжают раздаваться!
Eсли вы уже удалили старые серии, то предотвратить повторную закачку старых серий можно, отжав галочку в соответсвующих местах при запуске нового торрента. По возможности, желательно не удалять старые серии как можно дольше чтобы релизёр не столько продолжал раздавать старые серии, а смог сконцентрироваться на новых.
pb.wtf



Скачать Слепая зона через торрент http://i77.fastpic.ru/big/2016/0521/97/eb2b5676ae9c161eafac8d233d1bb097.jpg Скачать фильм Слепая зона через торрент бесплантно в хорошем качестве В ролях: Джейми Александер, Салливан Степлтон, Одри Эспарза, Роб Браун, Марко Кака, Орелин Гайя, Карл Ли, Ноэль Рамос, Юн-И Чанг, Саманта ... 9.2 10 34
Торрент: Зарегистрирован [2016-09-15 11:46] · скачан: 596 раз
Статус: √ проверено
Размер: 11.7 GB
Как cкачать? Как скачать Слепая зона через торрент | qTorrent

% Раздел Тема Автор DL S | L
Зарубежные сериалы [ 29.64 GB ] Слепая зона / Слепое пятно / Blindspot / Сезон: 1 / Серии 1-21 из 23 [2015 WEB-DL 720p] MVO [NewStudio] GEKADOL Скачать
1 | 0
Зарубежные сериалы [ 11.07 GB ] Слепая зона / Слепое пятно / Blindspot / Сезон: 1 / Серии 1-21 из 23 [2015 WEB-DLRip] MVO [NewStudio] GEKADOL Скачать
1 | 0


Последний раз редактировалось: killermax2013 (2016-09-15 11:46), всего редактировалось 9 раз(а)

28-11-2019 20:33  

Отключить всю рекламу на сайте

31-10-2015 18:58 Слепая зона Скачать торрент  

+6pb.wtf



26-11-2015 17:47 Слепая зона Скачать торрент  

+7-9pb.wtf



28-11-2015 10:48 Слепая зона Скачать торрент  

+10pb.wtf



17-12-2015 21:23 Слепая зона Скачать торрент  

Интересно, почему 10 из 13? Вроде сезон заканчивается на 10 серии... А так довольно не плохо. Второй сезон буду ждать...pb.wtf



17-12-2015 21:58 Слепая зона Скачать торрент  

Demosfen писал(а):

Интересно, почему 10 из 13? Вроде сезон заканчивается на 10 серии... А так довольно не плохо. Второй сезон буду ждать...

вообще то серий 23, сериал ушел на новогодние каникулыpb.wtf



13-03-2016 11:57 Слепая зона Скачать торрент  

+11-12pb.wtf



09-04-2016 19:27 Слепая зона Скачать торрент  

+13-14pb.wtf



10-05-2016 17:05 Слепая зона Скачать торрент  

+15-20pb.wtf



20-05-2016 20:11 Слепая зона Скачать торрент  

+22pb.wtf



    Дорогой пользователь! Огромная просьба, поблагодарите релизера, оцените раздачу и оставьте свои комментарий, если Вы скачали Слепая зона через торрент бесплатно! Внесите свою лепту в развитие PiratBit!
    Комментировать посты могут только пользователи прошедшие не сложную регистрацию
    Показать сообщения:    

    Слепая зона через торрент
    Скачать бесплатно Слепая зона
    Слепая зона скачать торрент
    Слепая зона смотреть онлайн
    Cкачать фильм Слепая зона бесплатно
    Слепая зона скачать торрент в хорошем качестве
    Слепая зона смотреть онлайн бесплатно в хорошем качестве


    Вы не можете начинать темы
    Вы не можете отвечать на сообщения
    Вы не можете редактировать свои сообщения
    Вы не можете удалять свои сообщения
    Вы не можете голосовать в опросах
    Вы не можете прикреплять файлы к сообщениям
    Вы можете скачивать файлы