Ссылка на приватное зеркало нашего сайта всего за 1$. Внимание количество ограничено!!!

2 сезон

iTunes

1 сезон

1

2 сезон

2 сезон

iTunes

1 сезон

RePack

30

Новинка

ВАЖНО

ИГРА 18+

pack

RePack

MK11
pack

Забери бонус

RePack

jed

!!Акция!!

Alien_Rage

RePack

fifa19

RePack

Assassins Creed: Odyssey

RePack

NEED FOR SPEED™ PAYBACK

4 сезон

9 сезон

Бесстыжие 9 сезон

Все сериалы

все сериалы на PB.wtf

RePack

FAR CRY 5
  

Царство / Reign / Сезон: 3 / Серии 1-9 из 22 (Мэттью Хатингс / Matthew Hastings, Брэд Силберлинг / Brad Silberling) [2014, США, фэнтези, драма, HDTVRip] MVO [ColdFilm] pb.wtf

Царство через торрент pb.wtf

Размер: 3.53 GB | Добавлен: 4 года 10 мес. назад | Торрент скачан:85 раз
Скачать  

25-10-2015 03:10 Царство Скачать торрент  

Царство / Reign
«Любовь это самое опасное чувство...»


  • Год выпуска: 2014
  • Страна: США
  • Жанр: фэнтези, драма

  • Продолжительность: 00:40:26 (Серия)
  • Перевод: Любительский многоголосый (ColdFilm)

  • Режиссер: Мэттью Хатингс / Matthew Hastings, Брэд Силберлинг / Brad Silberling
  • В ролях:

    Аделаида Кэйн (Mary), Тоби Регбо (Prince Francis), Торранс Кумбс (Sebastian), Меган Фоллоуз (Queen Catherine), Алан Ван Спрэнг (King Henry II), Селина Синден (Greer), Кэйтлин Стэйси (Kenna), Анна Попплуэлл (Lola), Дженесса Грант (Aylee), Россиф Сазерленд (Nostradamus), Джонатан Кельтц (Leith), Яэль Гробглас (Olivia D'Amencourt)

  • Описание:
    Сериал, повествующий о событиях 1557 года. Королеву Шотландии, Марию, с детства прячут в монастыре. Обходить стороной соперников, злодеев, желающих ее смерти, ей помогают монахини. Но приходит время возвращаться в замок и становиться не только титулованной королевой, но и женой принца Франциска, с которым девушка была обручена ещё несколько лет назад. Основу всей царской жизни составляют хитроумные планы и интриги. Король смотрит на замужество только как на способ сблизиться с другой страной и сделать свою Влacть ещё масштабнее и крепче. О светлых чувствах и влечениях речь идет только в сердце самой Марии, которая сразу же прибыв в замок, оказывается в центре сплетен и слухов. «Царство» рассказывает о приходе к власти Марии, о ее любви, о ее стремлениях и характере. Мария становится светлым лучиком в царстве тьмы, где правят темные силы и сексуальные интриги.
  • Рейтинг:



  • Качество: HDTVRip
  • Формат: :AVI
  • Видео кодек: XviD
  • Аудио кодек: (MP3)
  • Видео: 1096 Кбит/сек, 720*400 (16:9), в 23,976 кадра/сек, xvid
  • Аудио: 192 Кбит/сек, 44,1 КГц, 2 канала, MPEG Audio (MP3)
  • Релиз от: GEKADOL

    Код:

    Внимание! Раздача ведётся путём добавления новых серий; при каждом добавлении создаётся новый торрент. Чтобы начать докачку новой серии, пользователям необходимо сделать следующее:
    (1) остановить скачивание,
    (2) удалить старый торрент у себя из клиента (старые серии удалять не надо),
    (3) скачать новый торрент и запустить его у себя в клиенте вместо старого, при этом указать клиенту путь в старую папку куда и должно происходить скачивание новых серий.
    Ваш клиент при этом должен произвести хеширование (проверку) старой папки (если не производит сам - помогите ему сделать это), и будет докачивать только те серии которых у вас ещё нет. Старые серии при этом не удаляются, а продолжают раздаваться!
    Eсли вы уже удалили старые серии, то предотвратить повторную закачку старых серий можно, отжав галочку в соответсвующих местах при запуске нового торрента. По возможности, желательно не удалять старые серии как можно дольше чтобы релизёр не столько продолжал раздавать старые серии, а смог сконцентрироваться на новых.


    Код:

    Общее
    Полное имя                               : H:\Царство. Третий сезон\Reign.S03E03.HDTVRip.ColdFilm.avi
    Формат                                   : AVI
    Формат/Информация                        : Audio Video Interleave
    Размер файла                             : 388 Мбайт
    Продолжительность                        : 41 м.
    Общий поток                              : 1297 Кбит/сек
    Программа кодирования                    : VirtualDubMod 1.5.10.2 (build 2540/release)
    Библиотека кодирования                   : VirtualDubMod build 2540/release

    Видео
    Идентификатор                            : 0
    Формат                                   : xvid
    Идентификатор кодека                     : xvid
    Продолжительность                        : 41 м.
    Битрейт                                  : 1096 Кбит/сек
    Ширина                                   : 720 пикселей
    Высота                                   : 400 пикселей
    Соотношение сторон                       : 16:9
    Частота кадров                           : 23,976 кадра/сек
    Бит/(Пиксели*Кадры)                      : 0.159
    Размер потока                            : 328 Мбайт (84%)

    Аудио
    Идентификатор                            : 1
    Формат                                   : MPEG Audio
    Версия формата                           : Version 1
    Профиль формата                          : Layer 3
    Идентификатор кодека                     : 55
    Идентификатор кодека/Подсказка           : MP3
    Продолжительность                        : 41 м.
    Вид битрейта                             : Постоянный
    Битрейт                                  : 192 Кбит/сек
    Каналы                                   : 2 канала
    Частота                                  : 44,1 КГц
    Метод сжатия                             : С потерями
    Размер потока                            : 57,5 Мбайт (15%)
    Выравнивание                             : Разделение по промежуткам
    Продолжительность промежутка             : 42  мс. (1,00 видеокадр)
    Время предзагрузки промежутка            : 500  мс.




    Скриншоты:
    скриншот   скриншот   скриншот   скриншот   скриншот   скриншот  
    скриншот  

    Раздача ведётся путём добавления новых серий. Добавлена 9 серия (18.01.2016).Просьба перекачать торрент файл.

    pb.wtf



  • Скачать Царство через торрент http://pic1.kartinco.top/images/10/nrf2g.jpg Скачать фильм Царство через торрент бесплантно в хорошем качестве Описание: Сериал, повествующий о событиях 1557 года. Королеву Шотландии, Марию, с детства прячут в монастыре. Обходить стороной соперников, ... 9.7 10 9
    Info! Серебряная раздача, засчитывается только 50% скачанного.
    Торрент: Зарегистрирован [2016-01-18 01:03] · скачан: 85 раз
    Статус: √ проверено
    Размер: 3.53 GB
    Как cкачать? Как скачать Царство через торрент | qTorrent



    Последний раз редактировалось: GEKADOL (2016-01-18 01:03), всего редактировалось 3 раз(а)

    28-11-2019 20:33  

    Отключить всю рекламу на сайте

    23-11-2015 01:41 Царство Скачать торрент  

    интересно и где тут фентази? чут не разглядел история галимая!pb.wtf



    06-12-2015 03:34 Царство Скачать торрент  

    Интересно.pb.wtf



    17-03-2016 14:48 Царство Скачать торрент  

    Странно, что больше нет переведённых серий.Может, кто знает почему.pb.wtf



    25-02-2018 15:24 Царство Скачать торрент  

    Кто знает где можно скачать полностью???pb.wtf



      Дорогой пользователь! Огромная просьба, поблагодарите релизера, оцените раздачу и оставьте свои комментарий, если Вы скачали Царство через торрент бесплатно! Внесите свою лепту в развитие PiratBit!
      Комментировать посты могут только пользователи прошедшие не сложную регистрацию
      Показать сообщения:    

      Царство через торрент
      Скачать бесплатно Царство
      Царство скачать торрент
      Царство смотреть онлайн
      Cкачать фильм Царство бесплатно
      Царство скачать торрент в хорошем качестве
      Царство смотреть онлайн бесплатно в хорошем качестве


      Вы не можете начинать темы
      Вы не можете отвечать на сообщения
      Вы не можете редактировать свои сообщения
      Вы не можете удалять свои сообщения
      Вы не можете голосовать в опросах
      Вы не можете прикреплять файлы к сообщениям
      Вы можете скачивать файлы