Ссылка на приватное зеркало нашего сайта всего за 1$. Внимание количество ограничено!!!

2 сезон

iTunes

1 сезон

1

iTunes

iTunes

iTunes

1 сезон

RePack

30

ИГРА 18+

pack

ВАЖНО

!!Акция!!

Alien_RageХит недели

RePack

MK11
pack

Забери бонус

RePack

jed

!!Акция!!

Alien_Rage

RePack

fifa19

RePack

Assassins Creed: Odyssey

RePack

NEED FOR SPEED™ PAYBACK

4 сезон

9 сезон

Бесстыжие 9 сезон

Все сериалы

все сериалы на PB.wtf

RePack

FAR CRY 5
  

Приключения лисенка / Agent F.O.X. (Ги Шайинг) [2014, мультфильм, BDRip, Профессиональный (многоголосый)] pb.wtf

Приключения лисенка через торрент pb.wtf

Размер: 1.36 GB | Добавлен: 4 года 11 мес. назад | Торрент скачан:629 раз
Скачать  

25-10-2015 07:30 Приключения лисенка Скачать торрент  


Приключения лисенка / Agent F.O.X.


ИНФОРМАЦИЯ:
Год выпуска:2014
Страна: Китай
Жанр: мультфильм
Продолжительность: 01:27:03
Перевод: Профессиональный (многоголосый)
Режиссер: Ги Шайинг

В Ролях:
Эшли Брилл (Bunny), Энтони Лосон (Elder Rabbit, озвучка), Шеннон Сеттлмайр (Agent Fox / Longtail), Мэттью Варзел (Buggy / Various Voices, озвучка), Энтони Йеджер (Elder), Майк Йеджер (Professor Web)

Описание:
Супершпион - агент Л. И. С. А. прибывает в Кэррот Таун с одной целью: внедриться в общество дружелюбных кроликов и найти таинственный артефакт. Но вся миссия идет наперекосяк, когда секретного агента ошибочно принимают за дальнюю родственницу.

  • Мировая премьера:4 мая 2014

    ТЕХ.ДАННЫЕ:
    Качество: BDRip
    Формат: AVI
    Видео: xvid, 720x406 (16:9), 1823 kbps, 23,976 fps, 0,260 bpp
    Аудио: AC3 / 2.0 / 44 kHz / 320 kbps / 16 bit


    General
    Complete name : D:\Торенты\Agent.Liss.BDRip.RU.avi
    Format : AVI
    Format/Info : Audio Video Interleave
    File size : 1.36 GiB
    Duration : 1h 27mn
    Overall bit rate : 2 241 Kbps
    Writing application : Lavf56.25.101

    Video
    ID : 0
    Format : xvid
    Codec ID : xvid
    Duration : 1h 27mn
    Bit rate : 1 823 Kbps
    Width : 720 pixels
    Height : 406 pixels
    Display aspect ratio : 16:9
    Frame rate : 23.976 fps
    Bits/(Pixel*Frame) : 0.260
    Stream size : 1.11 GiB (81%)

    Audio
    ID : 1
    Format : AC-3
    Format/Info : Audio Coding 3
    Mode extension : CM (complete main)
    Codec ID : 2000
    Duration : 1h 27mn
    Bit rate mode : Constant
    Bit rate : 320 Kbps
    Channel(s) : 2 channels
    Channel positions : Front: L R
    Sampling rate : 44.1 KHz
    Bit depth : 16 bits
    Compression mode : Lossy
    Stream size : 199 MiB (14%)
    Alignment : Aligned on interleaves
    Скриншоты:


    © Оформление by Ворон
    pb.wtf



  • Скачать Приключения лисенка через торрент http://pic.kartinco.top/images/6/ordi9.jpg Скачать фильм Приключения лисенка через торрент бесплантно в хорошем качестве Описание: Супершпион - агент Л. И. С. А. прибывает в Кэррот Таун с одной целью: внедриться в общество дружелюбных кроликов и найти ... 9.4 10 16
    Торрент: Зарегистрирован [2015-10-25 07:30] · скачан: 629 раз
    Статус: √ проверено
    Размер: 1.36 GB
    Как cкачать? Как скачать Приключения лисенка через торрент | qTorrent

    28-11-2019 20:33  

    Отключить всю рекламу на сайте

    15-04-2016 13:06 Приключения лисенка Скачать торрент  

    Мульт не понравился вообще. Ни мне, ни детям....pb.wtf



      Дорогой пользователь! Огромная просьба, поблагодарите релизера, оцените раздачу и оставьте свои комментарий, если Вы скачали Приключения лисенка через торрент бесплатно! Внесите свою лепту в развитие PiratBit!
      Комментировать посты могут только пользователи прошедшие не сложную регистрацию
      Показать сообщения:    

      Приключения лисенка через торрент
      Скачать бесплатно Приключения лисенка
      Приключения лисенка скачать торрент
      Приключения лисенка смотреть онлайн
      Cкачать фильм Приключения лисенка бесплатно
      Приключения лисенка скачать торрент в хорошем качестве
      Приключения лисенка смотреть онлайн бесплатно в хорошем качестве


      Вы не можете начинать темы
      Вы не можете отвечать на сообщения
      Вы не можете редактировать свои сообщения
      Вы не можете удалять свои сообщения
      Вы не можете голосовать в опросах
      Вы не можете прикреплять файлы к сообщениям
      Вы можете скачивать файлы