2 сезон

iTunes

MVO

1

2 сезон

iTunes

iTunes

1 сезон

RePack

30

Новинка

ВАЖНО

ИГРА 18+

pack

RePack

MK11
pack

Легкие деньги

RePack

jed

RePack

fifa19

RePack

RDR2

RePack

NEED FOR SPEED™ PAYBACK

4 сезон

9 сезон

Бесстыжие 9 сезон

Все сериалы

все сериалы на PB.wtf

RePack

FAR CRY 5

Anonymous, доброе утро, мы не успеваем собрать деньги на оплату серверов за декабрь и январь, помогите нам пожалуйста в это трудное время. В качестве благодарности мы отключим Вам всю рекламу на сайте (укажите свой ник в строку Ваше имя)!

×
  
Magnet ссылка

BBC: Амазонка – великая река мира / Amazon: Super river (Эмма Ригни) [2007 г., документальный, DVDRip, Профессиональный (одноголосый)] pb.wtf

BBC: Амазонка – великая река мира через торрент pb.wtf

Размер: 732 MB | Добавлен: 5 лет 2 мес. назад | Торрент скачан:38 раз
Скачать  

25-10-2015 19:02 BBC: Амазонка – великая река мира Скачать торрент  

BBC: Амазонка – великая река мира / Amazon: Super river
Год выпуска: 2007
Страна: Великобритания
Жанр: документальный
Продолжительность: 00:49:06
Перевод: Профессиональный (одноголосый)
Субтитры: отсутствуют

Режиссер: Эмма Ригни



Описание: Самая совершенная техника, фантастические съемки с воздуха и из космоса в сочетании со зрительными эффектами помогут зрителям познакомиться с крупнейшей речной системой планеты.

Качество: DVDRip
Формат: AVI
Видео кодек: XviD
Аудио кодек: MP3
Видео: XVID 672x384 25.00fps 1948Kbps
Аудио#1: MPEG Audio Layer 3 48000Hz stereo 128Kbps
скриншот   скриншот   скриншот  

Общее
Полное имя : D:\download\BBC Амазонка - Великая река мира.avi
Формат : AVI
Формат/Информация : Audio Video Interleave
Размер файла : 732 Мбайт
Продолжительность : 49 м.
Общий поток : 2086 Кбит/сек
Программа кодирования : FairUse Wizard - http://fairusewizard.com
Библиотека кодирования : The best and REALLY easy backup tool

Видео
Идентификатор : 0
Формат : MPEG-4 Visual
Профиль формата : Advanced Simple@L5
Параметр BVOP формата : 1
Параметр QPel формата : Нет
Параметр GMC формата : Без точки перехода
Параметр матрицы формата : Default (H.263)
Режим смешивания : Сжатый битовый поток
Идентификатор кодека : XVID
Идентификатор кодека/Подсказка : XviD
Продолжительность : 49 м.
Битрейт : 1948 Кбит/сек
Ширина : 672 пикселя
Высота : 384 пикселя
Соотношение сторон : 16:9
Частота кадров : 25,000 кадров/сек
Цветовое пространство : YUV
Субдискретизация насыщенности : 4:2:0
Битовая глубина : 8 бит
Тип развёртки : Прогрессивная
Метод сжатия : С потерями
Бит/(Пиксели*Кадры) : 0.302
Размер потока : 684 Мбайт (93%)
Библиотека кодирования : XviD 1.1.0 (UTC 2005-11-22)

Аудио
Идентификатор : 1
Формат : MPEG Audio
Версия формата : Version 1
Профиль формата : Layer 3
Режим : Joint stereo
Идентификатор кодека : 55
Идентификатор кодека/Подсказка : MP3
Продолжительность : 49 м.
Вид битрейта : Постоянный
Битрейт : 128 Кбит/сек
Каналы : 2 канала
Частота : 48,0 КГц
Метод сжатия : С потерями
Размер потока : 45,0 Мбайт (6%)
Выравнивание : Соединение по промежуткам
Продолжительность промежутка : 40 мс. (1,00 видеокадр)
Время предзагрузки промежутка : 504 мс.
Библиотека кодирования : LAME3.97b
Настройки программы : -m j -V 4 -q 2 -lowpass 17 -b 128

pb.wtf



Скачать BBC: Амазонка – великая река мира через торрент http://pic.kartinco.top/images/11/loktw.jpg Скачать фильм BBC: Амазонка – великая река мира через торрент бесплантно в хорошем качестве Описание: Самая совершенная техника, фантастические съемки с воздуха и из космоса в сочетании со зрительными эффектами помогут зрителям ... 10 10 4
Торрент: Зарегистрирован [2015-10-25 19:02] · скачан: 38 раз
Статус: √ проверено
Размер: 732 MB
Как cкачать? Как скачать BBC: Амазонка – великая река мира через торрент | UTorrent

28-11-2019 20:33  

Отключить всю рекламу на сайте

    Дорогой пользователь! Огромная просьба, поблагодарите релизера, оцените раздачу и оставьте свои комментарий, если Вы скачали BBC: Амазонка – великая река мира через торрент бесплатно! Внесите свою лепту в развитие PiratBit!
    Комментировать посты могут только пользователи прошедшие не сложную регистрацию
    Показать сообщения:    

    BBC: Амазонка – великая река мира через торрент
    Скачать бесплатно BBC: Амазонка – великая река мира
    BBC: Амазонка – великая река мира скачать торрент
    BBC: Амазонка – великая река мира смотреть онлайн
    Cкачать фильм BBC: Амазонка – великая река мира бесплатно
    BBC: Амазонка – великая река мира скачать торрент в хорошем качестве
    BBC: Амазонка – великая река мира смотреть онлайн бесплатно в хорошем качестве


    Вы не можете начинать темы
    Вы не можете отвечать на сообщения
    Вы не можете редактировать свои сообщения
    Вы не можете удалять свои сообщения
    Вы не можете голосовать в опросах
    Вы не можете прикреплять файлы к сообщениям
    Вы можете скачивать файлы