Ссылка на приватное зеркало нашего сайта всего за 1$. Внимание количество ограничено!!!

2 сезон

iTunes

1 сезон

1

iTunes

iTunes

iTunes

1 сезон

RePack

30

ИГРА 18+

pack

ВАЖНО

!!Акция!!

Alien_RageХит недели

RePack

MK11
pack

Забери бонус

RePack

jed

!!Акция!!

Alien_Rage

RePack

fifa19

RePack

Assassins Creed: Odyssey

RePack

NEED FOR SPEED™ PAYBACK

4 сезон

9 сезон

Бесстыжие 9 сезон

Все сериалы

все сериалы на PB.wtf

RePack

FAR CRY 5
  

Вот так подружка / Una Donna per Amica (Джованни Веронези) [2014, комедия, BDRip 720p, Профессиональный многоголосый [Лицензия / iTunes] pb.wtf

Вот так подружка через торрент pb.wtf

Размер: 3.87 GB | Добавлен: 5 лет назад | Торрент скачан:39 раз
Скачать  

26-10-2015 06:28 Вот так подружка Скачать торрент  


Вот так подружка / Una Donna per Amica
««Возможна ли дружба между мужчиной и женщиной»»

ИНФОРМАЦИЯ:
Год выпуска:2014
Страна: Италия
Жанр: комедия
Продолжительность: 01:28:20
Перевод: Профессиональный многоголосый [Лицензия / iTunes]
Субтитры: английские
Режиссер: Джованни Веронези

В Ролях:


Фабио Де Луиджи (Francesco), Летиция Каста (Claudia), Моника Скаттини (Elga), Джеппи Куччиари (Cecilia), Вирджиния Раффаель (Patrizia), Валерия Соларино (Anna), Валентина Лодовини (Lia), Адриано Джаннини (Giovanni), Антония Лискова (Linda), Флавио Монтруккио (Luca)

Описание:
Франческо и Клаудия, молодые, красивые и успешные, - друзья не разлей вода уже много лет. Между ними нет абсолютно никаких секретов. Они любят весело проводить время и дурачатся как малые дети. У Клаудии даже есть ключи от квартиры Франческо, куда она может заглянуть в любое время. Но однажды девушка знакомится с Джованни, и тот принимается настойчиво за ней ухаживать, а вскоре уже зовет замуж.

  • Мировая премьера:27 февраля 2014

    ТЕХ.ДАННЫЕ:
    Качество: BDRip 720p
    Формат: MKV
    Видео: AVC, 1280x544 (2.35:1), 5241 kbps, 23,976 fps, 0,314 bpp
    Аудио №1: русский / AC3 / 5.1 / 48 kHz / 384 kbps / 16 bit ||
    Аудио №2: Italian / AC3 / 5.1 / 48 kHz / 640 kbps / 16 bit
    Навигация по главам: есть


    General
    Unique ID : 192493776089075726721250645317298938509 (0x90D0F3E747D702F5AFE742D52B9BE28D)
    Complete name : D:\Торенты\V0t.1ak.5oDru6k0.2015.P.BDRip.720p.mkv
    Format : Matroska
    Format version : Version 4 / Version 2
    File size : 3.87 GiB
    Duration : 1h 28mn
    Overall bit rate : 6 266 Kbps
    Movie name : Una.Donna.Per.Amica.2014.BDRip.720p.ELEKTRI4KA.UNIONGANG.TV
    Encoded date : UTC 2015-10-25 15:34:06
    Writing application : mkvmerge v8.5.0 ('Vanishing Act') 64bit
    Writing library : libebml v1.3.1 + libmatroska v1.4.2

    Video
    ID : 1
    Format : AVC
    Format/Info : Advanced Video Codec
    Format profile : High@L4.1
    Format settings, CABAC : Yes
    Format settings, ReFrames : 7 frames
    Codec ID : V_MPEG4/ISO/AVC
    Duration : 1h 28mn
    Bit rate : 5 241 Kbps
    Width : 1 280 pixels
    Height : 544 pixels
    Display aspect ratio : 2.35:1
    Frame rate : 23.976 fps
    Color space : YUV
    Chroma subsampling : 4:2:0
    Bit depth : 8 bits
    Scan type : Progressive
    Bits/(Pixel*Frame) : 0.314
    Stream size : 3.16 GiB (82%)
    Title : V0t.1ak.5oDru6k0.2015.P.BDRip.720p.ELEKTRI4KA.uniongang.tv
    Writing library : x264 core 125 r2200 999b753
    Encoding settings : cabac=1 / ref=7 / deblock=1:-3:-3 / analyse=0x3:0x113 / me=umh / subme=8 / psy=1 / psy_rd=1.00:0.10 / mixed_ref=1 / me_range=22 / chroma_me=1 / trellis=2 / 8x8dct=1 / cqm=0 / deadzone=21,11 / fast_pskip=1 / chroma_qp_offset=-3 / threads=6 / lookahead_threads=1 / sliced_threads=0 / nr=0 / decimate=1 / interlaced=0 / bluray_compat=0 / constrained_intra=0 / bframes=7 / b_pyramid=2 / b_adapt=1 / b_bias=0 / direct=3 / weightb=1 / open_gop=0 / weightp=2 / keyint=250 / keyint_min=23 / scenecut=40 / intra_refresh=0 / rc_lookahead=60 / rc=2pass / mbtree=1 / bitrate=5241 / ratetol=1.0 / qcomp=0.60 / qpmin=0 / qpmax=69 / qpstep=4 / cplxblur=20.0 / qblur=0.5 / ip_ratio=1.30 / aq=1:1.00
    Language : English
    Default : No
    Forced : No

    Audio #1
    ID : 2
    Format : AC-3
    Format/Info : Audio Coding 3
    Mode extension : CM (complete main)
    Codec ID : A_AC3
    Duration : 1h 28mn
    Bit rate mode : Constant
    Bit rate : 384 Kbps
    Channel(s) : 6 channels
    Channel positions : Front: L C R, Side: L R, LFE
    Sampling rate : 48.0 KHz
    Bit depth : 16 bits
    Compression mode : Lossy
    Stream size : 243 MiB (6%)
    Title : V0t.1ak.5oDru6k0.2015.P.BDRip.720p.ELEKTRI4KA.uniongang.tv
    Language : Russian
    Default : Yes
    Forced : No

    Audio #2
    ID : 3
    Format : AC-3
    Format/Info : Audio Coding 3
    Mode extension : CM (complete main)
    Codec ID : A_AC3
    Duration : 1h 28mn
    Bit rate mode : Constant
    Bit rate : 640 Kbps
    Channel(s) : 6 channels
    Channel positions : Front: L C R, Side: L R, LFE
    Sampling rate : 48.0 KHz
    Bit depth : 16 bits
    Compression mode : Lossy
    Stream size : 404 MiB (10%)
    Title : V0t.1ak.5oDru6k0.2015.P.BDRip.720p.ELEKTRI4KA.uniongang.tv
    Language : Italian
    Default : No
    Forced : No

    Text
    ID : 4
    Format : UTF-8
    Codec ID : S_TEXT/UTF8
    Codec ID/Info : UTF-8 Plain Text
    Title : V0t.1ak.5oDru6k0.2015.P.BDRip.720p.ELEKTRI4KA.uniongang.tv
    Language : English
    Default : No
    Forced : No

    Menu
    00:00:00.000 : en:00:00:00.000
    00:08:25.130 : en:00:08:25.130
    00:19:01.974 : en:00:19:01.974
    00:27:00.244 : en:00:27:00.244
    00:36:17.675 : en:00:36:17.675
    00:45:25.973 : en:00:45:25.973
    00:55:25.405 : en:00:55:25.405
    01:04:33.078 : en:01:04:33.078
    01:14:01.896 : en:01:14:01.896
    01:23:53.695 : en:01:23:53.695
    Скриншоты:


    © Оформление by Ворон
    pb.wtf



  • Скачать Вот так подружка через торрент http://pic.kartinco.top/images/6/ordi9.jpg Скачать фильм Вот так подружка через торрент бесплантно в хорошем качестве Описание: Франческо и Клаудия, молодые, красивые и успешные, - друзья не разлей вода уже много лет. Между ними нет абсолютно никаких ... 10 10 5
    Торрент: Зарегистрирован [2015-10-26 06:28] · скачан: 39 раз
    Статус: √ проверено
    Размер: 3.87 GB
    Как cкачать? Как скачать Вот так подружка через торрент | qTorrent

    % Раздел Тема Автор DL S | L
    Фильмы [HD 720p, 1080p] (Хороший звук DUB, MVO) [ 5.61 GB ] Вот так подружка / Una Donna per Amica [2014 BDRip 1080p многоголосый Ворон Скачать
    1 | 0
    Фильмы 2014 [DVDrip, WEB-DLRip, HDrip] [ 1.45 GB ] Вот так подружка / Una Donna per Amica [2014 Италия HDRip MVO - ] Ворон Скачать
    1 | 0

    28-11-2019 20:33  

    Отключить всю рекламу на сайте

    26-10-2015 15:13 Вот так подружка Скачать торрент  

    Сразу скажу, фильм не смотрел, но просто интересно, в описании " молодые, красивые и успешные" это о ком? Среди списка актёров самой молодой бабе 37 лет, мужикам и того больше. Неужели их в фильме настолько "омолодили"?pb.wtf



      Дорогой пользователь! Огромная просьба, поблагодарите релизера, оцените раздачу и оставьте свои комментарий, если Вы скачали Вот так подружка через торрент бесплатно! Внесите свою лепту в развитие PiratBit!
      Комментировать посты могут только пользователи прошедшие не сложную регистрацию
      Показать сообщения:    

      Вот так подружка через торрент
      Скачать бесплатно Вот так подружка
      Вот так подружка скачать торрент
      Вот так подружка смотреть онлайн
      Cкачать фильм Вот так подружка бесплатно
      Вот так подружка скачать торрент в хорошем качестве
      Вот так подружка смотреть онлайн бесплатно в хорошем качестве


      Вы не можете начинать темы
      Вы не можете отвечать на сообщения
      Вы не можете редактировать свои сообщения
      Вы не можете удалять свои сообщения
      Вы не можете голосовать в опросах
      Вы не можете прикреплять файлы к сообщениям
      Вы можете скачивать файлы