Ссылка на приватное зеркало нашего сайта всего за 1$. Внимание количество ограничено!!!

2 сезон

iTunes

1 сезон

1

2 сезон

2 сезон

iTunes

1 сезон

RePack

30

Новинка

ВАЖНО

ИГРА 18+

pack

RePack

MK11
pack

Забери бонус

RePack

jed

!!Акция!!

Alien_Rage

RePack

fifa19

RePack

Assassins Creed: Odyssey

RePack

NEED FOR SPEED™ PAYBACK

4 сезон

9 сезон

Бесстыжие 9 сезон

Все сериалы

все сериалы на PB.wtf

RePack

FAR CRY 5
  

Округ свиней (Кошмар в Беркшире) / Berkshire County (Одри Каммингс) [2014, ужасы, триллер, BDRip 1080p, Любительский одноголосый [Xixidok] pb.wtf

Округ свиней через торрент pb.wtf

Размер: 6.92 GB | Добавлен: 5 лет назад | Торрент скачан:51 раз
Скачать  

26-10-2015 15:24 Округ свиней Скачать торрент  


Округ свиней (Кошмар в Беркшире) / Berkshire County


ИНФОРМАЦИЯ:
Год выпуска:2014
Страна: Канада
Жанр: ужасы, триллер
Продолжительность: 01:23:01
Перевод: Любительский одноголосый [Xixidok]
Режиссер: Одри Каммингс

В Ролях:


Алиса Кинг (Kylie Winters), Самора Смоллвуд (Roberta), Барт Рошон (Swine), Аарон Чартрэнд (Marcus), Мэдисон Фергюсон (Phoebe), Cristophe Gallander (Sam), Leo Pady (Piglet), Роберт Нолан (Glen Harrison), Джози Янг (Amy Winters), Daphne Moens (Chelsea), Marcus Tarnoy (Stockton), Дэниэл Столфи (Reilly)

Описание:
Мало того, что Кайли Уинтерс сама питает к себе отвращение, над ней еще и все издеваются. Поэтому она неохотно соглашается присмотреть за детьми в изолированном загородном особняке в ночь на Хэллоуин. Когда маленький мальчик в маске свиньи появляется в дверях, ночь Кайли превращается в ужасающую жестокую игру в «кошки-мышки». Она должна выйти за рамки всего, что когда-либо знала, чтобы выжить в эту ночь.

  • Мировая премьера:5 октября 2014

    ТЕХ.ДАННЫЕ:
    Качество: BDRip 1080p
    Формат: MKV
    Видео: AVC, 1920x856 (2.25:1), 9788 kbps, 23,976 fps, 0,248 bpp
    Аудио №1: русский / AC3 / 5.1 / 48 kHz / 640 kbps / 16 bit ||
    Аудио №2: английский / DTS / 5.1 / 48 kHz / 1510 kbps / 24 bit
    Навигация по главам: есть


    General
    Unique ID : 183113500372299568216384185879069530008 (0x89C2609A970FD16A9CB4E10BDC091798)
    Complete name : D:\Торенты\Berkshire.County.2014.1080p.BDRip.x264.mkv
    Format : Matroska
    Format version : Version 4 / Version 2
    File size : 6.92 GiB
    Duration : 1h 23mn
    Overall bit rate : 11.9 Mbps
    Encoded date : UTC 2015-10-26 13:33:54
    Writing application : mkvmerge v6.9.1 ('Blue Panther') 64bit built on Apr 18 2014 18:23:38
    Writing library : libebml v1.3.0 + libmatroska v1.4.1

    Video
    ID : 1
    Format : AVC
    Format/Info : Advanced Video Codec
    Format profile : High@L4.1
    Format settings, CABAC : Yes
    Format settings, ReFrames : 5 frames
    Codec ID : V_MPEG4/ISO/AVC
    Duration : 1h 23mn
    Bit rate : 9 788 Kbps
    Width : 1 920 pixels
    Height : 856 pixels
    Display aspect ratio : 2.25:1
    Frame rate : 23.976 fps
    Color space : YUV
    Chroma subsampling : 4:2:0
    Bit depth : 8 bits
    Scan type : Progressive
    Bits/(Pixel*Frame) : 0.248
    Stream size : 5.54 GiB (80%)
    Writing library : x264 core 148 r2597 e86f3a1
    Encoding settings : cabac=1 / ref=5 / deblock=1:0:0 / analyse=0x3:0x113 / me=umh / subme=8 / psy=1 / psy_rd=1.00:0.00 / mixed_ref=1 / me_range=16 / chroma_me=1 / trellis=1 / 8x8dct=1 / cqm=0 / deadzone=21,11 / fast_pskip=0 / chroma_qp_offset=-2 / threads=12 / lookahead_threads=2 / sliced_threads=0 / nr=0 / decimate=1 / interlaced=0 / bluray_compat=0 / constrained_intra=0 / bframes=3 / b_pyramid=2 / b_adapt=2 / b_bias=0 / direct=3 / weightb=1 / open_gop=0 / weightp=2 / keyint=250 / keyint_min=23 / scenecut=40 / intra_refresh=0 / rc_lookahead=50 / rc=2pass / mbtree=1 / bitrate=9788 / ratetol=1.0 / qcomp=0.60 / qpmin=0 / qpmax=69 / qpstep=4 / cplxblur=20.0 / qblur=0.5 / ip_ratio=1.40 / aq=1:1.00
    Language : English
    Default : Yes
    Forced : No

    Audio #1
    ID : 2
    Format : AC-3
    Format/Info : Audio Coding 3
    Mode extension : CM (complete main)
    Codec ID : A_AC3
    Duration : 1h 23mn
    Bit rate mode : Constant
    Bit rate : 640 Kbps
    Channel(s) : 6 channels
    Channel positions : Front: L C R, Side: L R, LFE
    Sampling rate : 48.0 KHz
    Bit depth : 16 bits
    Compression mode : Lossy
    Stream size : 380 MiB (5%)
    Title : Xixidoktor
    Language : Russian
    Default : Yes
    Forced : No

    Audio #2
    ID : 3
    Format : DTS
    Format/Info : Digital Theater Systems
    Codec ID : A_DTS
    Duration : 1h 23mn
    Bit rate mode : Constant
    Bit rate : 1 510 Kbps
    Channel(s) : 6 channels
    Channel positions : Front: L C R, Side: L R, LFE
    Sampling rate : 48.0 KHz
    Bit depth : 24 bits
    Compression mode : Lossy
    Stream size : 896 MiB (13%)
    Language : English
    Default : No
    Forced : No

    Menu
    00:00:00.000 : en:00:00:00.000
    00:06:50.160 : en:00:06:50.160
    00:11:36.237 : en:00:11:36.237
    00:17:49.110 : en:00:17:49.110
    00:25:18.517 : en:00:25:18.517
    00:31:48.782 : en:00:31:48.782
    00:41:56.681 : en:00:41:56.681
    00:47:19.170 : en:00:47:19.170
    00:56:55.662 : en:00:56:55.662
    01:01:28.018 : en:01:01:28.018
    01:07:41.224 : en:01:07:41.224
    01:15:36.031 : en:01:15:36.031
    01:18:41.967 : en:01:18:41.967
    Скриншоты:


    © Оформление by Ворон
    pb.wtf



  • Скачать Округ свиней через торрент http://pic.kartinco.top/images/6/ordi9.jpg Скачать фильм Округ свиней через торрент бесплантно в хорошем качестве Описание: Мало того, что Кайли Уинтерс сама питает к себе отвращение, над ней еще и все издеваются. Поэтому она неохотно соглашается ... 10 10 3
    Торрент: Зарегистрирован [2015-10-26 15:24] · скачан: 51 раз
    Статус: T временная
    Размер: 6.92 GB
    Как cкачать? Как скачать Округ свиней через торрент | qTorrent

    % Раздел Тема Автор DL S | L
    T Фильмы 2014 (Звук TS, Cam, VO, DVO) [ 1.45 GB ] Округ свиней / Berkshire County [2014 HDRip] DVO+VO Ворон Скачать
    1 | 0

    28-11-2019 20:33  

    Отключить всю рекламу на сайте

    26-10-2015 15:42 Округ свиней Скачать торрент  

    Xixidok еще жив зараза.pb.wtf



    26-10-2015 20:01 Округ свиней Скачать торрент  

    Если бы не такие , как Хихидок , смотрели бы мы ( или бы не смотрели ) , фильмы без перевода . Так что , респект и уважуха , таким парням .pb.wtf



      Дорогой пользователь! Огромная просьба, поблагодарите релизера, оцените раздачу и оставьте свои комментарий, если Вы скачали Округ свиней через торрент бесплатно! Внесите свою лепту в развитие PiratBit!
      Комментировать посты могут только пользователи прошедшие не сложную регистрацию
      Показать сообщения:    

      Округ свиней через торрент
      Скачать бесплатно Округ свиней
      Округ свиней скачать торрент
      Округ свиней смотреть онлайн
      Cкачать фильм Округ свиней бесплатно
      Округ свиней скачать торрент в хорошем качестве
      Округ свиней смотреть онлайн бесплатно в хорошем качестве


      Вы не можете начинать темы
      Вы не можете отвечать на сообщения
      Вы не можете редактировать свои сообщения
      Вы не можете удалять свои сообщения
      Вы не можете голосовать в опросах
      Вы не можете прикреплять файлы к сообщениям
      Вы можете скачивать файлы