Ссылка на приватное зеркало всего за 1$. Внимание количество ограничено!!!

OK

1+1

iTunes

мы

OK

1

WEB-DLRip

Джокер

Пифагор

Ведьмак / The Witcher сериал

iTunes

ПШазам

ОК

Оно 2

iTunes

30
pack

Вам бонус

ВАЖНО

!!Акция!!

Alien_RageХит недели

RePack

Resident Evil 21

ИГРА 18+

pack

RePack

jed

RePack

fifa19

RePack

Assassins Creed: Odyssey

RePack

NEED FOR SPEED™ PAYBACK

4 сезон

9 сезон

Бесстыжие 9 сезон

Все сериалы

все сериалы на PB.wtf

RePack

FAR CRY 5
  

Эскорт / The Escort (Уилл Слокомб) [2015, мелодрама, драма, комедия, WEB-DLRip] Профессиональный (многоголосый) [Официальный звук] pb.wtf

Эскорт через торрент pb.wtf

Раздают: 1 [ 0 KB/s ]
Размер: 1.37 GB | Добавлен: 4 года 3 мес. назад | Торрент скачан:991 раз
Скачать  

26-10-2015 19:37 Эскорт Скачать торрент  

Эскорт / The Escort

  • Год выхода: 2015
  • Жанр: мелодрама, драма, комедия
  • Страна: США
  • Продолжительность: 01:27:36
  • Перевод: Профессиональный (многоголосый) [Официальный звук]
  • Режиссер: Уилл Слокомб
  • В ролях:

    Линдси Фонсека (Natalie), Майкл Донджер (Mitch), Томми Дьюи (JP), Брюс Кэмпбелл (Charles), Рэйчел Решефф (Emily), Румер Уиллис (Dana), Соня Уолгер (Samantha), Стивен Огг (Warren), Дэн Баккедаль (Rick), Анна Конкл (Cory), Сэм Дэйли, Икбал Теба (Richard)


  • Отчаянно нуждающийся в хорошей истории сексуально одержимый журналист погружается в мир эскорт-услуг высокого класса.

  • Качество: WEB-DLRip
  • Формат: AVI
  • Видео кодек: XviD
  • Аудио кодек: AC3
  • Видео: XviD, 720x384 (1.875), 1943 kbps, 23,976 fps, 0,293 bpp
  • Аудио: русский / AC3 / 2.0 / 48 kHz / 192 kbps / 16 bit

    Код:

    General
    Complete name                            : H:\Esc0rt.2015.WEB-DLRip.avi
    Format                                   : AVI
    Format/Info                              : Audio Video Interleave
    File size                                : 1.37 GiB
    Duration                                 : 1h 27mn
    Overall bit rate                         : 2 233 Kbps
    Writing application                      : VirtualDubMod 1.5.10.2 (build 2540/release)
    Writing library                          : VirtualDubMod build 2540/release

    Video
    ID                                       : 0
    Format                                   : MPEG-4 Visual
    Format profile                           : Advanced Simple@L5
    Format settings, BVOP                    : 2
    Format settings, QPel                    : No
    Format settings, GMC                     : No warppoints
    Format settings, Matrix                  : Default (MPEG)
    Codec ID                                 : XVID
    Codec ID/Hint                            : XviD
    Duration                                 : 1h 27mn
    Bit rate                                 : 1 944 Kbps
    Width                                    : 720 pixels
    Height                                   : 384 pixels
    Display aspect ratio                     : 1.875
    Frame rate                               : 23.976 fps
    Color space                              : YUV
    Chroma subsampling                       : 4:2:0
    Bit depth                                : 8 bits
    Scan type                                : Progressive
    Compression mode                         : Lossy
    Bits/(Pixel*Frame)                       : 0.293
    Stream size                              : 1.19 GiB (87%)
    Writing library                          : XviD 1.2.1 (UTC 2008-12-04)

    Audio
    ID                                       : 1
    Format                                   : AC-3
    Format/Info                              : Audio Coding 3
    Mode extension                           : CM (complete main)
    Codec ID                                 : 2000
    Duration                                 : 1h 27mn
    Bit rate mode                            : Constant
    Bit rate                                 : 192 Kbps
    Channel(s)                               : 2 channels
    Channel positions                        : Front: L R
    Sampling rate                            : 48.0 KHz
    Bit depth                                : 16 bits
    Compression mode                         : Lossy
    Stream size                              : 120 MiB (9%)
    Alignment                                : Split accross interleaves

    Скриншоты:


    © Оформление by -Lexx- pb.wtf



  • Скачать Эскорт через торрент http://pic.kartinco.top/images/6/stazu.jpg Скачать фильм Эскорт через торрент бесплантно в хорошем качестве qw.png Отчаянно нуждающийся в хорошей истории сексуально одержимый журналист погружается в мир эскорт-услуг высокого ... 8.3 10 16
    Торрент: Зарегистрирован [2015-10-26 19:37] · скачан: 991 раз
    Статус: T временная
    Размер: 1.37 GB
    Как cкачать? Как скачать Эскорт через торрент | qTorrent

    % Раздел Тема Автор DL S | L
    Порно фильмы HD [ 2.46 GB ] Наказание Матери Твой Первый Эскорт и Двойное Проникновение Мамки / Cory Chase In Punishing Mother Your First Escort And DP MILF [2016 Incest MILF Rape Anal Bondage Double Penetration Creampie WEB-DL 720p Оригинальный] nn99nn Скачать
    1 | 0
    T Фильмы (WEB-DL 720p, 1080p) [ 3.38 GB ] Эскорт / The Escort [2015 WEB-DL 1080p] многоголосый [Официальный звук] -Lexx- Скачать
    1 | 0
    T Фильмы (WEB-DL 720p, 1080p) [ 2.89 GB ] Эскорт / The Escort [2015 WEB-DL 720p многоголосый [официальный звук] Ворон Скачать
    1 | 0
    Порно фильмы с сюжетом [ 1.84 GB ] Эскорт #3 / The Escort #3 [2014 Affairs & Love Triangles Feature WEB-DLRip Оригинал] Pir@tya2010 Скачать
    1 | 0
    Порно фильмы с сюжетом [ 1.67 GB ] Эскорт 2. / The Escort 2. [2014 Feature. DVDRip Оригинал] Pir@tya2010 Скачать
    1 | 0
    Порно фильмы с сюжетом [ 929 MB ] Эскорт / The Escort [2013 Romance Feature Oral Sex All Sex DVDRip Оригинал] 19alexei87 Скачать
    1 | 0
    Порно фильмы с сюжетом [ 2.03 GB ] Эскорт / The Escort [2013 Feature. WEB-DLRip Оригинал] Pir@tya2010 Скачать
    1 | 0

    28-11-2019 20:33  

    Отключить всю рекламу на сайте

    30-10-2015 19:01 Эскорт Скачать торрент  

    Даже не ожидал что фильм будет таким отстоем,досмотреть сможет не каждый!pb.wtf



    15-03-2016 14:26 Эскорт Скачать торрент  

    Не знаю мне понравился неплохой фильмpb.wtf



      Дорогой пользователь! Огромная просьба, поблагодарите релизера, оцените раздачу и оставьте свои комментарий, если Вы скачали Эскорт через торрент бесплатно! Внесите свою лепту в развитие PiratBit!
      Комментировать посты могут только пользователи прошедшие не сложную регистрацию
      Показать сообщения:    

      Эскорт через торрент
      Скачать бесплатно Эскорт
      Эскорт скачать торрент
      Эскорт смотреть онлайн
      Cкачать фильм Эскорт бесплатно
      Эскорт скачать торрент в хорошем качестве
      Эскорт смотреть онлайн бесплатно в хорошем качестве


      Вы не можете начинать темы
      Вы не можете отвечать на сообщения
      Вы не можете редактировать свои сообщения
      Вы не можете удалять свои сообщения
      Вы не можете голосовать в опросах
      Вы не можете прикреплять файлы к сообщениям
      Вы можете скачивать файлы