Ссылка на приватное зеркало всего за 1$. Внимание количество ограничено!!!

iTunes

iTunes

iTunes

1

iTunes

iTunes

iTunes

iTunes

iTunes

30
pack

$ от Little Big

ВАЖНО

!!Акция!!

Alien_RageХит недели

RePack

Resident Evil 21

ИГРА 18+

pack

RePack

jed

!!Акция!!

Alien_Rage

RePack

fifa19

RePack

Assassins Creed: Odyssey

RePack

NEED FOR SPEED™ PAYBACK

4 сезон

9 сезон

Бесстыжие 9 сезон

Все сериалы

все сериалы на PB.wtf

RePack

FAR CRY 5
  

Эскорт / The Escort (Уилл Слокомб) [2015, мелодрама, драма, комедия, WEB-DL 1080p] Профессиональный многоголосый [Официальный звук] pb.wtf

Эскорт через торрент pb.wtf

Размер: 3.38 GB | Добавлен: 4 года 8 мес. назад | Торрент скачан:460 раз
Скачать  

27-10-2015 05:18 Эскорт Скачать торрент  

Эскорт / The Escort

  • Год выхода: 2015
  • Жанр: мелодрама, драма, комедия
  • Страна: США
  • Продолжительность: 01:27:36
  • Перевод: Профессиональный многоголосый [Официальный звук]
  • Режиссер: Уилл Слокомб
  • В ролях:

    Линдси Фонсека (Natalie), Майкл Донджер (Mitch), Томми Дьюи (JP), Брюс Кэмпбелл (Charles), Рэйчел Решефф (Emily), Румер Уиллис (Dana), Соня Уолгер (Samantha), Стивен Огг (Warren), Дэн Баккедаль (Rick), Анна Конкл (Cory), Сэм Дэйли, Икбал Теба (Richard)


  • Отчаянно нуждающийся в хорошей истории сексуально одержимый журналист погружается в мир эскорт-услуг высокого класса.

  • Качество: WEB-DL 1080p
  • Формат: MKV
  • Видео кодек: AVC
  • Аудио кодек: AC3
  • Видео: AVC, 1920x1038 (1.850), 4831 kbps, 23,976 fps, 0,101 bpp
  • Аудио №1: русский / AC3 / 2.0 / 48 kHz / 192 kbps / 16 bit ||
  • Аудио №2: английский / AC3 / 5.1 / 48 kHz / 384 kbps / 16 bit

    Код:

    General
    Unique ID                                : 179029150959001472747314360523996682791 (0x86AFC2A1622B4CDB8D1478F145065A27)
    Complete name                            : H:\Esk0rt.2015.P.WEBDL.1080p.mkv
    Format                                   : Matroska
    Format version                           : Version 4 / Version 2
    File size                                : 3.38 GiB
    Duration                                 : 1h 27mn
    Overall bit rate                         : 5 518 Kbps
    Encoded date                             : UTC 2015-10-26 18:40:48
    Writing application                      : mkvmerge v8.2.0 ('World of Adventure') 64bit
    Writing library                          : libebml v1.3.1 + libmatroska v1.4.2

    Video
    ID                                       : 1
    Format                                   : AVC
    Format/Info                              : Advanced Video Codec
    Format profile                           : High@L4.0
    Format settings, CABAC                   : Yes
    Format settings, ReFrames                : 4 frames
    Codec ID                                 : V_MPEG4/ISO/AVC
    Duration                                 : 1h 27mn
    Bit rate                                 : 4 832 Kbps
    Width                                    : 1 920 pixels
    Height                                   : 1 038 pixels
    Display aspect ratio                     : 1.850
    Frame rate                               : 23.976 fps
    Color space                              : YUV
    Chroma subsampling                       : 4:2:0
    Bit depth                                : 8 bits
    Scan type                                : Progressive
    Bits/(Pixel*Frame)                       : 0.101
    Stream size                              : 2.96 GiB (88%)
    Title                                    : The.Escort.2015.1080p.WEB-DL.DD5.1.H264-FGT
    Language                                 : English
    Default                                  : Yes
    Forced                                   : No
    Color primaries                          : BT.709-5, BT.1361, IEC 61966-2-4, SMPTE RP177
    Transfer characteristics                 : BT.709-5, BT.1361
    Matrix coefficients                      : BT.709-5, BT.1361, IEC 61966-2-4 709, SMPTE RP177

    Audio #1
    ID                                       : 2
    Format                                   : AC-3
    Format/Info                              : Audio Coding 3
    Mode extension                           : CM (complete main)
    Codec ID                                 : A_AC3
    Duration                                 : 1h 27mn
    Bit rate mode                            : Constant
    Bit rate                                 : 192 Kbps
    Channel(s)                               : 2 channels
    Channel positions                        : Front: L R
    Sampling rate                            : 48.0 KHz
    Bit depth                                : 16 bits
    Compression mode                         : Lossy
    Stream size                              : 120 MiB (3%)
    Language                                 : Russian
    Default                                  : Yes
    Forced                                   : Yes

    Audio #2
    ID                                       : 3
    Format                                   : AC-3
    Format/Info                              : Audio Coding 3
    Mode extension                           : CM (complete main)
    Codec ID                                 : A_AC3
    Duration                                 : 1h 27mn
    Bit rate mode                            : Constant
    Bit rate                                 : 384 Kbps
    Channel(s)                               : 6 channels
    Channel positions                        : Front: L C R, Side: L R, LFE
    Sampling rate                            : 48.0 KHz
    Bit depth                                : 16 bits
    Compression mode                         : Lossy
    Stream size                              : 241 MiB (7%)
    Title                                    : Original
    Language                                 : English
    Default                                  : No
    Forced                                   : No

    Скриншоты:


    © Оформление by -Lexx- pb.wtf



  • Скачать Эскорт через торрент http://pic.kartinco.top/images/6/stazu.jpg Скачать фильм Эскорт через торрент бесплантно в хорошем качестве qw.png Отчаянно нуждающийся в хорошей истории сексуально одержимый журналист погружается в мир эскорт-услуг высокого ... 9.3 10 15
    Info! Золотая раздача, скачанное не засчитывается.
    Торрент: Зарегистрирован [2015-10-27 05:18] · скачан: 460 раз
    Статус: T временная
    Размер: 3.38 GB
    Как cкачать? Как скачать Эскорт через торрент | qTorrent

    % Раздел Тема Автор DL S | L
    Порно фильмы HD [ 2.46 GB ] Наказание Матери Твой Первый Эскорт и Двойное Проникновение Мамки / Cory Chase In Punishing Mother Your First Escort And DP MILF [2016 Incest MILF Rape Anal Bondage Double Penetration Creampie WEB-DL 720p Оригинальный] nn99nn Скачать
    1 | 0
    T Фильмы 2015 [DVDrip, WEB-DLRip, HDrip] [ 1.37 GB ] Эскорт / The Escort [2015 WEB-DLRip] [Официальный звук] -Lexx- Скачать
    1 | 0
    T Фильмы (WEB-DL 720p, 1080p) [ 2.89 GB ] Эскорт / The Escort [2015 WEB-DL 720p многоголосый [официальный звук] Ворон Скачать
    1 | 0
    Порно фильмы с сюжетом [ 1.84 GB ] Эскорт #3 / The Escort #3 [2014 Affairs & Love Triangles Feature WEB-DLRip Оригинал] Pir@tya2010 Скачать
    1 | 0
    Порно фильмы с сюжетом [ 1.67 GB ] Эскорт 2. / The Escort 2. [2014 Feature. DVDRip Оригинал] Pir@tya2010 Скачать
    1 | 0
    Порно фильмы с сюжетом [ 929 MB ] Эскорт / The Escort [2013 Romance Feature Oral Sex All Sex DVDRip Оригинал] 19alexei87 Скачать
    1 | 0
    Порно фильмы с сюжетом [ 2.03 GB ] Эскорт / The Escort [2013 Feature. WEB-DLRip Оригинал] Pir@tya2010 Скачать
    1 | 0

    28-11-2019 20:33  

    Отключить всю рекламу на сайте

    27-10-2015 16:28 Эскорт Скачать торрент  

    ну и ну, наши самые простые проститутки на их "элитных" потянут))))pb.wtf



    08-11-2015 22:13 Эскорт Скачать торрент  

    shadow912 писал(а):

    ну и ну, наши самые простые проститутки на их "элитных" потянут))))

    да только их женщины не ложатся под хачей за айфонpb.wtf



    15-11-2015 13:25 Эскорт Скачать торрент  

    deityofjd писал(а):

    shadow912 писал(а):

    ну и ну, наши самые простые проститутки на их "элитных" потянут))))

    да только их женщины не ложатся под хачей за айфон

    ну да только под нигеровpb.wtf



    23-11-2015 17:55 Эскорт Скачать торрент  

    националисты и фашисты вы, хачи не хачи какая разница...
    и Знаешь почему ложатся потому что вы трахаться не умеете вы только дрочить можете и все , а мы им доем и то и другое.pb.wtf



    28-11-2015 19:39 Эскорт Скачать торрент  

    Ты тут не обобщай, вы- мы. Шлюха которая ложится за деньги не особо беспокоится как ее и кто.pb.wtf



      Дорогой пользователь! Огромная просьба, поблагодарите релизера, оцените раздачу и оставьте свои комментарий, если Вы скачали Эскорт через торрент бесплатно! Внесите свою лепту в развитие PiratBit!
      Комментировать посты могут только пользователи прошедшие не сложную регистрацию
      Показать сообщения:    

      Эскорт через торрент
      Скачать бесплатно Эскорт
      Эскорт скачать торрент
      Эскорт смотреть онлайн
      Cкачать фильм Эскорт бесплатно
      Эскорт скачать торрент в хорошем качестве
      Эскорт смотреть онлайн бесплатно в хорошем качестве


      Вы не можете начинать темы
      Вы не можете отвечать на сообщения
      Вы не можете редактировать свои сообщения
      Вы не можете удалять свои сообщения
      Вы не можете голосовать в опросах
      Вы не можете прикреплять файлы к сообщениям
      Вы можете скачивать файлы