2 сезон

iTunes

1 сезон

1

iTunes

iTunes

iTunes

1 сезон

RePack

30

ИГРА 18+

pack

ВАЖНО

!!Акция!!

Alien_RageХит недели

RePack

MK11
pack

Забери бонус

RePack

jed

!!Акция!!

Alien_Rage

RePack

fifa19

RePack

Assassins Creed: Odyssey

RePack

NEED FOR SPEED™ PAYBACK

4 сезон

9 сезон

Бесстыжие 9 сезон

Все сериалы

все сериалы на PB.wtf

RePack

FAR CRY 5
  

Девственницы-самоубийцы / The Virgin Suicides (София Коппола) [1999, драма, мелодрама, BDRip 720p by msltel] MVO pb.wtf

Девственницы-самоубийцы через торрент pb.wtf

Размер: 5.3 GB | Добавлен: 5 лет назад | Торрент скачан:24 раза
Скачать  

27-10-2015 09:50 Девственницы-самоубийцы Скачать торрент  

Название: Девственницы-самоубийцы
Оригинальное название: The Virgin Suicides
Год выпуска: 1999
Страна: США
Жанр: драма, мелодрама
Продолжительность: 01:36:45
Перевод: профессиональный многоголосый

Режиссёр: София Коппола

В ролях: Джеймс Вудс, Кэтлин Тёрнер, Кирстен Данст, Джош Хартнетт, Майкл Паре, Скотт Гленн, Дэнни ДеВито, Эй Джей Кук, Ханна Р. Холл, Лесли Хейман, Хейден Кристенсен, Роберт Шварцман, Челсе Суэйн, Энтони ДеСимоне, Ли Каган, Джонатан Такер, Ной Шебиб, Джо Ронцетти, Крис Хейл, Джо Диникол, Сyки Кайзер, Шерри Миллер, Джонатан Уитэйкер, Мишель Дюке

Описание: В семье Лисбон пять дочерей-подростков. После того как 13-летняя Сесилия кончает жизнь самоубийством, её оставшиеся в живых сёстры становятся объектом пристального внимания всех жителей городка, особенно соседских парней, устраивающих за девочками настоящую слежку. Желая оградить дочерей от окружающих, родители постепенно прекращают всяческое общение с внешним миром и запрещают дочерям выходить из дома...



Качество: BDRip 720p Сравнение с исходником
Формат: MKV
Видео: MPEG-4 AVC, 6787 Кбит/с, 1280x720, 23,976 кадра/с
Аудио 1: русский, AC3, 448 kbps, 6 ch, 48 kHz [профессиональный многоголосый]
Аудио 2: английский, AC3, 448 kbps, 6 ch, 48 kHz [оригинал]
Субтитры 1: русские
Субтитры 2: английские
Общее
Уникальный идентификатор : 251611385095539434633468941158750628266 (0xBD4A97102A840C1A985278F0786829AA)
Полное имя : D:VideoДевственницы-самоубийцы.1999.BDRip.720p.mkv
Формат : Matroska
Версия формата : Version 4 / Version 2
Размер файла : 5,30 Гбайт
Продолжительность : 1 ч. 36 м.
Общий поток : 7839 Кбит/сек
Название фильма : BDRip -- STarankov
Дата кодирования : UTC 2015-10-26 12:47:14
Программа кодирования : mkvmerge v8.2.0 ('World of Adventure') 64bit
Библиотека кодирования : libebml v1.3.1 + libmatroska v1.4.2
DURATION : 01:33:09.756000000
NUMBER_OF_FRAMES : 881
NUMBER_OF_BYTES : 40856
_STATISTICS_WRITING_APP : mkvmerge v8.2.0 ('World of Adventure') 64bit
_STATISTICS_WRITING_DATE_UTC : 2015-10-26 12:47:14
_STATISTICS_TAGS : BPS DURATION NUMBER_OF_FRAMES NUMBER_OF_BYTES

Видео
Идентификатор : 1
Формат : AVC
Формат/Информация : Advanced Video Codec
Профиль формата : High@L4.1
Параметр CABAC формата : Да
Параметр ReFrames формата : 9 кадров
Идентификатор кодека : V_MPEG4/ISO/AVC
Продолжительность : 1 ч. 36 м.
Битрейт : 6787 Кбит/сек
Ширина : 1280 пикселей
Высота : 720 пикселей
Соотношение сторон : 16:9
Режим частоты кадров : Постоянный
Частота кадров : 23,976 кадра/сек
Цветовое пространство : YUV
Субдискретизация насыщенности : 4:2:0
Битовая глубина : 8 бит
Тип развёртки : Прогрессивная
Бит/(Пиксели*Кадры) : 0.307
Размер потока : 4,59 Гбайт (87%)
Библиотека кодирования : x264 core 146 r2538 121396c
Настройки программы : cabac=1 / ref=9 / deblock=1:-3:-3 / analyse=0x3:0x113 / me=umh / subme=10 / psy=1 / psy_rd=1.00:0.15 / mixed_ref=1 / me_range=32 / chroma_me=1 / trellis=2 / 8x8dct=1 / cqm=0 / deadzone=21,11 / fast_pskip=1 / chroma_qp_offset=-3 / threads=6 / lookahead_threads=1 / sliced_threads=0 / nr=0 / decimate=1 / interlaced=0 / bluray_compat=0 / constrained_intra=0 / bframes=7 / b_pyramid=2 / b_adapt=2 / b_bias=0 / direct=1 / weightb=1 / open_gop=0 / weightp=2 / keyint=230 / keyint_min=23 / scenecut=40 / intra_refresh=0 / rc_lookahead=40 / rc=crf / mbtree=0 / crf=19.0 / qcomp=0.60 / qpmin=0 / qpmax=69 / qpstep=4 / vbv_maxrate=40000 / vbv_bufsize=50000 / crf_max=0.0 / nal_hrd=none / filler=0 / ip_ratio=1.40 / pb_ratio=1.30 / aq=1:1.00
Язык : English
Default : Да
Forced : Нет
DURATION : 01:36:45.592000000
NUMBER_OF_FRAMES : 139195
NUMBER_OF_BYTES : 5037017093
_STATISTICS_WRITING_APP : mkvmerge v8.2.0 ('World of Adventure') 64bit
_STATISTICS_WRITING_DATE_UTC : 2015-10-26 12:47:14
_STATISTICS_TAGS : BPS DURATION NUMBER_OF_FRAMES NUMBER_OF_BYTES

Аудио #1
Идентификатор : 2
Формат : AC-3
Формат/Информация : Audio Coding 3
Расширение режима : CM (complete main)
Параметр Endianness формата : Big
Идентификатор кодека : A_AC3
Продолжительность : 1 ч. 36 м.
Вид битрейта : Постоянный
Битрейт : 448 Кбит/сек
Каналы : 6 каналов
Расположение каналов : Front: L C R, Side: L R, LFE
Частота : 48,0 КГц
Метод сжатия : С потерями
Размер потока : 310 Мбайт (6%)
Заголовок : MVO
Язык : Russian
Default : Да
Forced : Нет

Аудио #2
Идентификатор : 3
Формат : AC-3
Формат/Информация : Audio Coding 3
Расширение режима : CM (complete main)
Параметр Endianness формата : Big
Идентификатор кодека : A_AC3
Продолжительность : 1 ч. 36 м.
Вид битрейта : Постоянный
Битрейт : 448 Кбит/сек
Каналы : 6 каналов
Расположение каналов : Front: L C R, Side: L R, LFE
Частота : 48,0 КГц
Метод сжатия : С потерями
Размер потока : 310 Мбайт (6%)
Заголовок : Original
Язык : English
Default : Нет
Forced : Нет

Текст #1
Идентификатор : 4
Формат : UTF-8
Идентификатор кодека : S_TEXT/UTF8
Идентификатор кодека/Информация : UTF-8 Plain Text
Заголовок : русский
Язык : Russian
Default : Нет
Forced : Нет

Текст #2
Идентификатор : 5
Формат : UTF-8
Идентификатор кодека : S_TEXT/UTF8
Идентификатор кодека/Информация : UTF-8 Plain Text
Заголовок : английский
Default : Нет
Forced : Нет
pb.wtf



Скачать Девственницы-самоубийцы через торрент http://i60.fastpic.ru/big/2015/1026/26/363c83f92fc5e6c9db95d61076350a26.jpg Скачать фильм Девственницы-самоубийцы через торрент бесплантно в хорошем качестве Описание: В семье Лисбон пять дочерей-подростков. После того как 13-летняя Сесилия кончает жизнь самоубийством, её оставшиеся в живых ... 9.8 10 4
Info! Золотая раздача, скачанное не засчитывается.
Торрент: Зарегистрирован [2015-10-27 09:50] · скачан: 24 раз
Статус: √ проверено
Размер: 5.3 GB
Как cкачать? Как скачать Девственницы-самоубийцы через торрент | qTorrent

% Раздел Тема Автор DL S | L
Фильмы [HD 720p, 1080p] (Хороший звук DUB, MVO) [ 14.84 GB ] Девственницы-самоубийцы / The Virgin Suicides [1999 BDRip 1080p by msltel] MVO msltel Скачать
1 | 0
Фильмы [HD 720p, 1080p] (Хороший звук DUB, MVO) [ 8.05 GB ] Девственницы-самоубийцы / The Virgin Suicides [1999 BDRip 720p от _denis_100 | NNNB] MVO + 2xAVO + VO + Original + Sub _denis_100 Скачать
3 | 0
Фильмы до 2000 г. [ 2.68 GB ] Девственницы-самоубийцы / The Virgin Suicides [1999 BDRip AVC by msltel] MVO msltel Скачать
1 | 0
Фильмы до 2000 г. [ 1.46 GB ] Девственницы-самоубийцы / The Virgin Suicides [1999 слова BDRip MVO лицензия] Schumakher Скачать
1 | 0

28-11-2019 20:33  

Отключить всю рекламу на сайте

    Дорогой пользователь! Огромная просьба, поблагодарите релизера, оцените раздачу и оставьте свои комментарий, если Вы скачали Девственницы-самоубийцы через торрент бесплатно! Внесите свою лепту в развитие PiratBit!
    Комментировать посты могут только пользователи прошедшие не сложную регистрацию
    Показать сообщения:    

    Девственницы-самоубийцы через торрент
    Скачать бесплатно Девственницы-самоубийцы
    Девственницы-самоубийцы скачать торрент
    Девственницы-самоубийцы смотреть онлайн
    Cкачать фильм Девственницы-самоубийцы бесплатно
    Девственницы-самоубийцы скачать торрент в хорошем качестве
    Девственницы-самоубийцы смотреть онлайн бесплатно в хорошем качестве


    Вы не можете начинать темы
    Вы не можете отвечать на сообщения
    Вы не можете редактировать свои сообщения
    Вы не можете удалять свои сообщения
    Вы не можете голосовать в опросах
    Вы не можете прикреплять файлы к сообщениям
    Вы можете скачивать файлы