Всегда рабочее зеркало просто перед .vidak.icu напиши любое слово или цифру, Пример http://p5i.vidak.icu

>

7.4

iTunes

7.4

2 сезон

9.4

1 сезон

1

7.4

2 сезон

7.2

iTunes

6.0

MVO

13

6.1

iTunes

8.3

Пиратка

30

ULTIMATE

pack

9.9

Лицензия

ВАЖНО

ИГРА 18+

pack

7.3

RePack

MK11

7.7

RePack

jed

7.8

RePack

fifa19

8.5

RePack

RDR2

RePack

NEED FOR SPEED™ PAYBACK

1 сезон

9 сезон

Бесстыжие 9 сезон

Все сериалы

все сериалы на PB.wtf

RePack

FAR CRY 5

Anonymous, доброй ночи, мы катастрофически не успеваем собрать деньги на оплату серверов, помогите нам пожалуйста 5,10,15р., для нас важна любая помощь . В качестве благодарности мы отключим Вам всю рекламу на сайте (укажите свой ник в строку Ваше имя)!

×
  
Magnet ссылка

Семейство Белье / La famille Belier (Эрик Лартиго / Eric Lartigau) [2014, Франция, Бельгия, драма, комедия, музыка, BDRip by keeper.52] AVO (А.Алексеев) pb.wtf

Семейство Белье через торрент pb.wtf

Размер: 1.46 GB | Добавлен: 6 лет 2 мес. назад | Торрент скачан:6 раз
Смотреть онлайн Семейство Белье | Скачать    Ребята, помогите собрать деньги на оплату серверов!!!

27-10-2015 11:35 Семейство Белье Скачать торрент  

Семейство Белье / La famille Belier
Страна: Франция, Бельгия / Canal+ [fr], Centre du Cinéma et de l'Audiovisuel de la Fédération Wallonie-Bruxelles, Ciné, D8, France 2 Cinéma, France Télévisions, Jerico, Le Tax Shelter du Gouvernement Fédéral de Belgique, M6, Mars Films, Nexus Factory, Quarante 12 Films, Sofica Manon 4, uFund, uMedia Family, Vendôme Production

Жанр: драма, комедия, музыка
Год выпуска: 2014
Продолжительность: 01:45:21

Перевод: Авторский (одноголосый) Антон Алексеев
Cубтитры: нет
Оригинальная аудиодорожка: нет

Режиссер: Эрик Лартиго / Eric Lartigau

В ролях: Карин Вьяр, Франсуа Дамиенс, Эрик Элмоснино, Луан Эмера, Роксана Дюран, Ilian Bergala, Luca Gelberg, Мар Содуп, Стефан Войтович, Жером Киршер...

Описание: В семействе Белье все глухие, кроме 16-летней Паулы. Она является незаменимым переводчиком для родителей в повседневной работе на их ферме и при продаже их домашних сыров на рынке. Однажды, вдохновленная своим преподавателем музыки, который открыл в ней вокальный талант, Паула решает начать подготовку к прослушиванию для вокального курса, проходящего на французском радио в Париже. Этот выбор означает, что она должна покинуть свою семью, чтобы сделать свои первые шаги во взрослую жизнь.



Качество: BDRip / La.Famille.Belier.2014.FRENCH.1080p.BluRay.AVC.DTS-HD.MA.5.1-WiHD
Формат: AVI
Видео кодек: XviD
Аудио кодек: AC3
Видео: 720x384 (1.85:1), XviD 1532 Кбит/сек / 23.976 fps / Бит/(Пиксели*Кадры) : 0.231
Аудио: 48 kHz, Dolby AC3, 6 ch, 448 kbps, русский

Дополнительно: На оригинальную дорожку наложен чистый голос перевода Антона Алексеева.

Раздача от:
General
Format : AVI
Format/Info : Audio Video Interleave
File size : 1.46 GiB
Duration : 1h 45mn
Overall bit rate : 1 989 Kbps
Writing application : VirtualDubMod 1.5.10.3 (build 2550/release)
Writing library : VirtualDubMod build 2550/release

Video
ID : 0
Format : MPEG-4 Visual
Format profile : Advanced Simple@L5
Format settings, BVOP : 1
Format settings, QPel : No
Format settings, GMC : No warppoints
Format settings, Matrix : Custom
Codec ID : XVID
Codec ID/Hint : XviD
Duration : 1h 45mn
Bit rate : 1 532 Kbps
Width : 720 pixels
Height : 384 pixels
Display aspect ratio : 1.85:1
Frame rate : 23.976 fps
Color space : YUV
Chroma subsampling : 4:2:0
Bit depth : 8 bits
Scan type : Progressive
Compression mode : Lossy
Bits/(Pixel*Frame) : 0.231
Stream size : 1.13 GiB (77%)
Writing library : XviD 73

Audio
ID : 1
Format : AC-3
Format/Info : Audio Coding 3
Mode extension : CM (complete main)
Format settings, Endianness : Big
Codec ID : 2000
Duration : 1h 45mn
Bit rate mode : Constant
Bit rate : 448 Kbps
Channel(s) : 6 channels
Channel positions : Front: L C R, Side: L R, LFE
Sampling rate : 48.0 KHz
Bit depth : 16 bits
Compression mode : Lossy
Stream size : 338 MiB (23%)
Alignment : Split accross interleaves
Interleave, duration : 42 ms (1.00 video frame)
Interleave, preload duration : 500 ms
pb.wtf



Скачать Семейство Белье через торрент http://i057.radikal.ru/1510/40/df3b135f1ab5.png Скачать, смотреть онлайн Семейство Белье бесплантно в хорошем качестве Описание: В семействе Белье все глухие, кроме 16-летней Паулы. Она является незаменимым переводчиком для родителей в повседневной работе на ... 10 10 2
Info! Золотая раздача, скачанное не засчитывается.
Торрент: Зарегистрирован [2015-10-27 11:35] · скачан: 6 раз
Статус: √ проверено
Размер: 1.46 GB
Как cкачать? Как скачать Семейство Белье через торрент | UTorrent

% Раздел Тема Автор DL S | L
Фильмы с авторской озвучкой [ 1.46 GB ] Семейство Белье / La famille Belier [2014 Бельгия музыка BDRip-AVC by keeper.52] AVO keeper.52 Скачать
1 | 0
Фильмы (Blu-ray, BD-Remux, HDDVD) [ 29.12 GB ] Семейство Белье / La famille Belier [2014 Бельгия музыка BDRemux 1080p] AVO + Original + Sub keeper.52 Скачать
1 | 0
Фильмы с авторской озвучкой [ 2.18 GB ] Семейство Белье / La famille Belier [2014 Бельгия музыка BDRip-AVC by keeper.52] AVO + Original keeper.52 Скачать
1 | 0
Фильмы с авторской озвучкой [ 9.58 GB ] Семейство Белье / La famille Belier [2014 Бельгия музыка BDRip 1080p от AVP Studio] AVO + Original AVP Studio Скачать
1 | 0
Фильмы с авторской озвучкой [ 747 MB ] Семейство Белье / La famille Belier [2014 Бельгия музыка BDRip от AVP Studio] AVO AVP Studio Скачать
1 | 0
Фильмы с авторской озвучкой [ 2.19 GB ] Семейство Белье / La famille Belier [2014 Бельгия музыка BDRip от AVP Studio] AVO + Original AVP Studio Скачать
1 | 0
Фильмы с авторской озвучкой [ 4.16 GB ] Семейство Белье / La famille Belier [2014 Бельгия музыка BDRip 720p от AVP Studio] AVO + Original AVP Studio Скачать
1 | 0


Последний раз редактировалось: keeper.52 (2015-10-27 11:59), всего редактировалось 1 раз

28-11-2019 20:33  

Отключить всю рекламу на сайте

    Дорогой пользователь! Огромная просьба, поблагодарите релизера, оцените раздачу и оставьте свои комментарий, если Вы скачали Семейство Белье через торрент бесплатно!
    Комментировать посты могут только пользователи прошедшие не сложную регистрацию
    Показать сообщения:    

    Семейство Белье через торрент
    Скачать бесплатно Семейство Белье
    Семейство Белье скачать торрент
    Семейство Белье смотреть онлайн
    Cкачать фильм Семейство Белье бесплатно
    Семейство Белье скачать торрент в хорошем качестве
    Семейство Белье смотреть онлайн бесплатно в хорошем качестве


    Вы не можете начинать темы
    Вы не можете отвечать на сообщения
    Вы не можете редактировать свои сообщения
    Вы не можете удалять свои сообщения
    Вы не можете голосовать в опросах
    Вы не можете прикреплять файлы к сообщениям
    Вы можете скачивать файлы