Всегда рабочее зеркало без VPN и Proxy просто перед .vidak.icu напиши любое слово или цифру, Пример http://ndmt.vidak.icu

MVO

2 сезон

2 сезон

1

1 сезон

iTunes

2 сезон

13

1 сезон

Распродажа

pack

Рекомендуем

Пиратка

30

ВАЖНО

RePack

MK11

RePack

jed

RePack

fifa19

RePack

RDR2

RePack

NEED FOR SPEED™ PAYBACK

Кинопоиск HD

6 сезон

 Острые козырьки 6 сезон

Все сериалы

все сериалы на PB.wtf

RePack

FAR CRY 5

Anonymous, нам критически не хватает 5601 руб. на оплату серверов и переферии за Апрель, помоги нам пожалуйста, вся надежда только на тебя. В благодарность мы отключим тебе всю рекламу на сайте!

×
  
Magnet ссылка

Семейство Белье / La famille Belier (Эрик Лартиго / Eric Lartigau) [2014, Франция, Бельгия, драма, комедия, музыка, BDRip 1080p от AVP Studio] AVO (А.Алексеев) + Original (fre) pb.wtf

Семейство Белье через торрент pb.wtf

Размер: 9.58 GB | Добавлен: 6 лет 6 мес. назад | Торрент скачан:11 раз
Смотреть онлайн Семейство Белье | Скачать    Ребята, помогите собрать деньги на оплату серверов!!!

27-10-2015 11:53 Семейство Белье Скачать торрент  


Раздача является материалом, специально подготовленным и переведенным для new-team.org

Семейство Белье
Gardiens de l'ordre

Страна: Франция, Бельгия
Производство: Canal+ [fr], Centre du Cinéma et de l'Audiovisuel de la Fédération Wallonie-Bruxelles, Ciné, D8, France 2 Cinéma, France Télévisions, Jerico, Le Tax Shelter du Gouvernement Fédéral de Belgique, M6, Mars Films, Nexus Factory, Quarante 12 Films, Sofica Manon 4, uFund, uMedia Family, Vendôme Production

Жанр: драма, комедия, музыка
Год выпуска: 2014
Продолжительность: 01:45:21

Перевод: Авторский (одноголосый) Антон Алексеев
Cубтитры: нет
Оригинальная аудиодорожка: французский

Режиссер: Эрик Лартиго / Eric Lartigau

В ролях:
Карин Вьяр, Франсуа Дамиенс, Эрик Элмоснино, Луан Эмера, Роксана Дюран, Ilian Bergala, Luca Gelberg, Мар Содуп, Стефан Войтович, Жером Киршер...

Описание:
В семействе Белье все глухие, кроме 16-летней Паулы. Она является незаменимым переводчиком для родителей в повседневной работе на их ферме и при продаже их домашних сыров на рынке. Однажды, вдохновленная своим преподавателем музыки, который открыл в ней вокальный талант, Паула решает начать подготовку к прослушиванию для вокального курса, проходящего на французском радио в Париже. Этот выбор означает, что она должна покинуть свою семью, чтобы сделать свои первые шаги во взрослую жизнь.

Источник: BDRemux 1080p La.Famille.Belier.2014.FRENCH.1080p.BluRay.AVC.DTS-HD.MA.5.1-WiHD
Качество видео: BDRip 1080p
Формат видео: MKV

Видео: 1920x1036 (1.85:1), 23.976 fps, H264 ~ 10000 kbps avg, 0.210 bit/pixel
Аудио: 48 kHz, DTS Core: 5.1 ch, 1509 kbps русский
Аудио: 48 kHz, DTS Core: 5.1 ch, 1509 kbps французский
Оригинальная навигация по главам: есть
Дополнительно: На оригинальную дорожку наложен чистый голос перевода Антона Алексеева.

Раздача от:
Общее
Полное имя : Semeystvo.Bele.2014.BDRip1080p_[New-team]_by_AVP_Studio.mkv
Формат : Matroska
Версия формата : Version 4 / Version 2
Размер файла : 9,58 Гбайт
Продолжительность : 1 ч. 45 м.
Общий поток : 13,0 Мбит/сек
Дата кодирования : UTC 2015-10-27 11:04:25
Программа кодирования : mkvmerge v8.4.0 ('A better way to fly') 64bit
Библиотека кодирования : libebml v1.3.1 + libmatroska v1.4.2
DURATION : 01:45:20.928000000
NUMBER_OF_FRAMES : 592587
NUMBER_OF_BYTES : 1192285044
_STATISTICS_WRITING_APP : mkvmerge v8.4.0 ('A better way to fly') 64bit
_STATISTICS_WRITING_DATE_UTC : 2015-10-27 11:04:25
_STATISTICS_TAGS : BPS DURATION NUMBER_OF_FRAMES NUMBER_OF_BYTES

Видео
Идентификатор : 1
Формат : AVC
Формат/Информация : Advanced Video Codec
Профиль формата : High@L4.1
Параметр CABAC формата : Да
Параметр ReFrames формата : 4 кадра
Идентификатор кодека : V_MPEG4/ISO/AVC
Продолжительность : 1 ч. 45 м.
Битрейт : 10000 Кбит/сек
Ширина : 1920 пикселей
Высота : 1036 пикселей
Соотношение сторон : 1,85:1
Соотношение сторон в оригинале : 1,85:1
Режим частоты кадров : Постоянный
Частота кадров : 23,976 кадра/сек
Цветовое пространство : YUV
Субдискретизация насыщенности : 4:2:0
Битовая глубина : 8 бит
Тип развёртки : Прогрессивная
Бит/(Пиксели*Кадры) : 0.210
Размер потока : 7,17 Гбайт (75%)
Библиотека кодирования : x264 core 130 r2273 b3065e6
Настройки программы : cabac=1 / ref=4 / deblock=1:-3:-3 / analyse=0x3:0x113 / me=umh / subme=10 / psy=1 / psy_rd=1.00:0.05 / mixed_ref=1 / me_range=32 / chroma_me=1 / trellis=2 / 8x8dct=1 / cqm=0 / deadzone=21,11 / fast_pskip=0 / chroma_qp_offset=-3 / threads=6 / lookahead_threads=1 / sliced_threads=0 / nr=0 / decimate=0 / interlaced=0 / bluray_compat=0 / constrained_intra=0 / bframes=8 / b_pyramid=2 / b_adapt=2 / b_bias=0 / direct=3 / weightb=1 / open_gop=0 / weightp=2 / keyint=240 / keyint_min=24 / scenecut=40 / intra_refresh=0 / rc_lookahead=40 / rc=2pass / mbtree=1 / bitrate=10000 / ratetol=1.0 / qcomp=0.60 / qpmin=0 / qpmax=69 / qpstep=4 / cplxblur=20.0 / qblur=0.5 / ip_ratio=1.40 / aq=1:1.00
Язык : English
Default : Да
Forced : Нет
DURATION : 01:45:21.315000000
NUMBER_OF_FRAMES : 151560
NUMBER_OF_BYTES : 7900572090
_STATISTICS_WRITING_APP : mkvmerge v8.4.0 ('A better way to fly') 64bit
_STATISTICS_WRITING_DATE_UTC : 2015-10-27 11:04:25
_STATISTICS_TAGS : BPS DURATION NUMBER_OF_FRAMES NUMBER_OF_BYTES

Аудио #1
Идентификатор : 2
Формат : DTS
Формат/Информация : Digital Theater Systems
Режим : 16
Параметр Endianness формата : Big
Идентификатор кодека : A_DTS
Продолжительность : 1 ч. 45 м.
Вид битрейта : Постоянный
Битрейт : 1509 Кбит/сек
Каналы : 6 каналов
Расположение каналов : Front: L C R, Side: L R, LFE
Частота : 48,0 КГц
Битовая глубина : 24 бит
Метод сжатия : С потерями
Размер потока : 1,11 Гбайт (12%)
Язык : Russian
Default : Да
Forced : Нет

Аудио #2
Идентификатор : 3
Формат : DTS
Формат/Информация : Digital Theater Systems
Режим : 16
Параметр Endianness формата : Big
Идентификатор кодека : A_DTS
Продолжительность : 1 ч. 45 м.
Вид битрейта : Постоянный
Битрейт : 1509 Кбит/сек
Каналы : 6 каналов
Расположение каналов : Front: L C R, Side: L R, LFE
Частота : 48,0 КГц
Битовая глубина : 24 бит
Метод сжатия : С потерями
Размер потока : 1,11 Гбайт (12%)
Язык : French
Default : Нет
Forced : Нет

Меню
00:00:00.000 : en:00:00:00.000
00:09:28.067 : en:00:09:28.067
00:18:10.464 : en:00:18:10.464
00:25:18.767 : en:00:25:18.767
00:30:35.709 : en:00:30:35.709
00:37:14.732 : en:00:37:14.732
00:47:45.112 : en:00:47:45.112
00:58:17.828 : en:00:58:17.828
01:06:08.923 : en:01:06:08.923
01:15:42.288 : en:01:15:42.288
01:28:55.205 : en:01:28:55.205
01:40:34.278 : en:01:40:34.278
pb.wtf



Скачать Семейство Белье через торрент http://new-team.org/images/exclusive/Exclusive01.png Скачать, смотреть онлайн Семейство Белье бесплантно в хорошем качестве Описание:В семействе Белье все глухие, кроме 16-летней Паулы. Она является незаменимым переводчиком для родителей в повседневной работе на ... 10 10 2
Info! Золотая раздача, скачанное не засчитывается.
Торрент: Зарегистрирован [2015-10-27 11:53] · скачан: 11 раз
Статус: √ проверено
Размер: 9.58 GB
Как cкачать? Как скачать Семейство Белье через торрент | UTorrent

% Раздел Тема Автор DL S | L
Фильмы с авторской озвучкой [ 1.46 GB ] Семейство Белье / La famille Belier [2014 Бельгия музыка BDRip-AVC by keeper.52] AVO keeper.52 Скачать
1 | 0
Фильмы (Blu-ray, BD-Remux, HDDVD) [ 29.12 GB ] Семейство Белье / La famille Belier [2014 Бельгия музыка BDRemux 1080p] AVO + Original + Sub keeper.52 Скачать
1 | 0
Фильмы с авторской озвучкой [ 2.18 GB ] Семейство Белье / La famille Belier [2014 Бельгия музыка BDRip-AVC by keeper.52] AVO + Original keeper.52 Скачать
1 | 0
Фильмы с авторской озвучкой [ 747 MB ] Семейство Белье / La famille Belier [2014 Бельгия музыка BDRip от AVP Studio] AVO AVP Studio Скачать
1 | 0
Фильмы с авторской озвучкой [ 2.19 GB ] Семейство Белье / La famille Belier [2014 Бельгия музыка BDRip от AVP Studio] AVO + Original AVP Studio Скачать
1 | 0
Фильмы с авторской озвучкой [ 4.16 GB ] Семейство Белье / La famille Belier [2014 Бельгия музыка BDRip 720p от AVP Studio] AVO + Original AVP Studio Скачать
1 | 0
Фильмы с авторской озвучкой [ 1.46 GB ] Семейство Белье / La famille Belier [2014 Бельгия музыка BDRip by keeper.52] AVO keeper.52 Скачать
1 | 0

28-11-2019 20:33  

Отключить всю рекламу на сайте

    Дорогой пользователь! Огромная просьба, поблагодарите релизера, оцените раздачу и оставьте свои комментарий, если Вы скачали Семейство Белье через торрент бесплатно!
    Комментировать посты могут только пользователи прошедшие не сложную регистрацию
    Показать сообщения:    

    Семейство Белье через торрент
    Скачать бесплатно Семейство Белье
    Семейство Белье скачать торрент
    Семейство Белье смотреть онлайн
    Cкачать фильм Семейство Белье бесплатно
    Семейство Белье скачать торрент в хорошем качестве
    Семейство Белье смотреть онлайн бесплатно в хорошем качестве


    Вы не можете начинать темы
    Вы не можете отвечать на сообщения
    Вы не можете редактировать свои сообщения
    Вы не можете удалять свои сообщения
    Вы не можете голосовать в опросах
    Вы не можете прикреплять файлы к сообщениям
    Вы можете скачивать файлы