>

7.4

iTunes

7.4

2 сезон

9.4

1 сезон

1

7.4

2 сезон

7.2

iTunes

6.0

MVO

13

6.1

iTunes

8.3

Пиратка

30

ULTIMATE

pack

9.9

Лицензия

ВАЖНО

ИГРА 18+

pack

7.3

RePack

MK11

7.7

RePack

jed

7.8

RePack

fifa19

8.5

RePack

RDR2

RePack

NEED FOR SPEED™ PAYBACK

1 сезон

9 сезон

Бесстыжие 9 сезон

Все сериалы

все сериалы на PB.wtf

RePack

FAR CRY 5

Anonymous, доброй ночи, мы катастрофически не успеваем собрать деньги на оплату серверов, помогите нам пожалуйста 5,10,15р., для нас важна любая помощь . В качестве благодарности мы отключим Вам всю рекламу на сайте (укажите свой ник в строку Ваше имя)!

×
  
Magnet ссылка

Семейство Белье / La famille Belier (Эрик Лартиго / Eric Lartigau) [2014, Франция, Бельгия, драма, комедия, музыка, BDRip-AVC by keeper.52] AVO (А.Алексеев) pb.wtf

Семейство Белье через торрент pb.wtf

Размер: 1.46 GB | Добавлен: 6 лет 2 мес. назад | Торрент скачан:8 раз
Смотреть онлайн Семейство Белье | Скачать    Ребята, помогите собрать деньги на оплату серверов!!!

27-10-2015 12:10 Семейство Белье Скачать торрент  


Раздача является материалом, специально подготовленным и переведенным для new-team.org

Семейство Белье / La famille Belier

Страна: Франция, Бельгия / Canal+ [fr], Centre du Cinéma et de l'Audiovisuel de la Fédération Wallonie-Bruxelles, Ciné, D8, France 2 Cinéma, France Télévisions, Jerico, Le Tax Shelter du Gouvernement Fédéral de Belgique, M6, Mars Films, Nexus Factory, Quarante 12 Films, Sofica Manon 4, uFund, uMedia Family, Vendôme Production

Жанр: драма, комедия, музыка
Год выпуска: 2014
Продолжительность: 01:45:21

Перевод: Авторский (одноголосый) Антон Алексеев
Cубтитры: нет
Оригинальная аудиодорожка: нет

Режиссер: Эрик Лартиго / Eric Lartigau

В ролях: Карин Вьяр, Франсуа Дамиенс, Эрик Элмоснино, Луан Эмера, Роксана Дюран, Ilian Bergala, Luca Gelberg, Мар Содуп, Стефан Войтович, Жером Киршер...

Описание: В семействе Белье все глухие, кроме 16-летней Паулы. Она является незаменимым переводчиком для родителей в повседневной работе на их ферме и при продаже их домашних сыров на рынке. Однажды, вдохновленная своим преподавателем музыки, который открыл в ней вокальный талант, Паула решает начать подготовку к прослушиванию для вокального курса, проходящего на французском радио в Париже. Этот выбор означает, что она должна покинуть свою семью, чтобы сделать свои первые шаги во взрослую жизнь.



Качество: BDRip-AVC / La.Famille.Belier.2014.FRENCH.1080p.BluRay.AVC.DTS-HD.MA.5.1-WiHD
Формат: MKV

Видео: 928x500 (1.85:1), MPEG-4 AVC 1532 Кбит/сек / 23.976 fps / Бит/(Пиксели*Кадры) : 0.138
Аудио: 48 kHz, Dolby AC3, 6 ch, 448 kbps, русский

Дополнительно: На оригинальную дорожку наложен чистый голос перевода Антона Алексеева. Фильм разбит на главы, как на оригинальном Bluray диске.

Раздача от:
General
Format : Matroska
Format version : Version 4 / Version 2
File size : 1.46 GiB
Duration : 1h 45mn
Overall bit rate : 1 979 Kbps
Encoded date : UTC 2015-10-25 14:53:57
Writing application : mkvmerge v8.5.1 ('Where you lead I will follow') 64bit
Writing library : libebml v1.3.3 + libmatroska v1.4.4
DURATION : 01:45:20.928000000
NUMBER_OF_FRAMES : 197529
NUMBER_OF_BYTES : 353971968
_STATISTICS_WRITING_APP : mkvmerge v8.5.1 ('Where you lead I will follow') 64bit
_STATISTICS_WRITING_DATE_UT : 2015-10-25 14:53:57
_STATISTICS_TAGS : BPS DURATION NUMBER_OF_FRAMES NUMBER_OF_BYTES

Video
ID : 1
Format : AVC
Format/Info : Advanced Video Codec
Format profile : High@L4.1
Format settings, CABAC : Yes
Format settings, ReFrames : 8 frames
Codec ID : V_MPEG4/ISO/AVC
Duration : 1h 45mn
Bit rate : 1 532 Kbps
Width : 928 pixels
Height : 500 pixels
Display aspect ratio : 1.85:1
Frame rate mode : Constant
Frame rate : 23.976 fps
Color space : YUV
Chroma subsampling : 4:2:0
Bit depth : 8 bits
Scan type : Progressive
Bits/(Pixel*Frame) : 0.138
Stream size : 1.10 GiB (75%)
Writing library : x264 core 148 r2597 e86f3a1
Encoding settings : cabac=1 / ref=8 / deblock=1:-2:-1 / analyse=0x3:0x113 / me=umh / subme=10 / psy=1 / psy_rd=1.00:0.05 / mixed_ref=1 / me_range=32 / chroma_me=1 / trellis=2 / 8x8dct=1 / cqm=0 / deadzone=21,11 / fast_pskip=0 / chroma_qp_offset=-3 / threads=6 / lookahead_threads=1 / sliced_threads=0 / nr=0 / decimate=0 / interlaced=0 / bluray_compat=0 / constrained_intra=0 / bframes=8 / b_pyramid=2 / b_adapt=2 / b_bias=0 / direct=3 / weightb=1 / open_gop=0 / weightp=2 / keyint=250 / keyint_min=25 / scenecut=40 / intra_refresh=0 / rc=2pass / mbtree=0 / bitrate=1532 / ratetol=1.0 / qcomp=0.60 / qpmin=0 / qpmax=69 / qpstep=4 / cplxblur=20.0 / qblur=0.5 / ip_ratio=1.40 / pb_ratio=1.30 / aq=1:1.00
Language : French
Default : Yes
Forced : No
DURATION : 01:45:21.315000000
NUMBER_OF_FRAMES : 151560
NUMBER_OF_BYTES : 1208169926
_STATISTICS_WRITING_APP : mkvmerge v8.5.1 ('Where you lead I will follow') 64bit
_STATISTICS_WRITING_DATE_UT : 2015-10-25 14:53:57
_STATISTICS_TAGS : BPS DURATION NUMBER_OF_FRAMES NUMBER_OF_BYTES

Audio
ID : 2
Format : AC-3
Format/Info : Audio Coding 3
Mode extension : CM (complete main)
Format settings, Endianness : Big
Codec ID : A_AC3
Duration : 1h 45mn
Bit rate mode : Constant
Bit rate : 448 Kbps
Channel(s) : 6 channels
Channel positions : Front: L C R, Side: L R, LFE
Sampling rate : 48.0 KHz
Compression mode : Lossy
Stream size : 338 MiB (23%)
Language : Russian
Default : Yes
Forced : No

Menu
00:00:00.000 : en:00:00:00.000
00:09:28.067 : en:00:09:28.067
00:18:10.464 : en:00:18:10.464
00:25:18.767 : en:00:25:18.767
00:30:35.709 : en:00:30:35.709
00:37:14.732 : en:00:37:14.732
00:47:45.112 : en:00:47:45.112
00:58:17.828 : en:00:58:17.828
01:06:08.923 : en:01:06:08.923
01:15:42.288 : en:01:15:42.288
01:28:55.205 : en:01:28:55.205
01:40:34.278 : en:01:40:34.278
pb.wtf



Скачать Семейство Белье через торрент http://new-team.org/images/exclusive/Exclusive01.png Скачать, смотреть онлайн Семейство Белье бесплантно в хорошем качестве Описание: В семействе Белье все глухие, кроме 16-летней Паулы. Она является незаменимым переводчиком для родителей в повседневной работе на ... 10 10 3
Info! Золотая раздача, скачанное не засчитывается.
Торрент: Зарегистрирован [2015-10-27 12:10] · скачан: 8 раз
Статус: √ проверено
Размер: 1.46 GB
Как cкачать? Как скачать Семейство Белье через торрент | UTorrent

% Раздел Тема Автор DL S | L
Фильмы (Blu-ray, BD-Remux, HDDVD) [ 29.12 GB ] Семейство Белье / La famille Belier [2014 Бельгия музыка BDRemux 1080p] AVO + Original + Sub keeper.52 Скачать
1 | 0
Фильмы с авторской озвучкой [ 2.18 GB ] Семейство Белье / La famille Belier [2014 Бельгия музыка BDRip-AVC by keeper.52] AVO + Original keeper.52 Скачать
1 | 0
Фильмы с авторской озвучкой [ 9.58 GB ] Семейство Белье / La famille Belier [2014 Бельгия музыка BDRip 1080p от AVP Studio] AVO + Original AVP Studio Скачать
1 | 0
Фильмы с авторской озвучкой [ 747 MB ] Семейство Белье / La famille Belier [2014 Бельгия музыка BDRip от AVP Studio] AVO AVP Studio Скачать
1 | 0
Фильмы с авторской озвучкой [ 2.19 GB ] Семейство Белье / La famille Belier [2014 Бельгия музыка BDRip от AVP Studio] AVO + Original AVP Studio Скачать
1 | 0
Фильмы с авторской озвучкой [ 4.16 GB ] Семейство Белье / La famille Belier [2014 Бельгия музыка BDRip 720p от AVP Studio] AVO + Original AVP Studio Скачать
1 | 0
Фильмы с авторской озвучкой [ 1.46 GB ] Семейство Белье / La famille Belier [2014 Бельгия музыка BDRip by keeper.52] AVO keeper.52 Скачать
1 | 0

28-11-2019 20:33  

Отключить всю рекламу на сайте

27-10-2015 19:22 Семейство Белье Скачать торрент  

Спасибо, с удовольствием посмотрим семьей. А то одни ведьмы-супергерои-зомби кругом на экране и наяву.pb.wtf



    Дорогой пользователь! Огромная просьба, поблагодарите релизера, оцените раздачу и оставьте свои комментарий, если Вы скачали Семейство Белье через торрент бесплатно!
    Комментировать посты могут только пользователи прошедшие не сложную регистрацию
    Показать сообщения:    

    Семейство Белье через торрент
    Скачать бесплатно Семейство Белье
    Семейство Белье скачать торрент
    Семейство Белье смотреть онлайн
    Cкачать фильм Семейство Белье бесплатно
    Семейство Белье скачать торрент в хорошем качестве
    Семейство Белье смотреть онлайн бесплатно в хорошем качестве


    Вы не можете начинать темы
    Вы не можете отвечать на сообщения
    Вы не можете редактировать свои сообщения
    Вы не можете удалять свои сообщения
    Вы не можете голосовать в опросах
    Вы не можете прикреплять файлы к сообщениям
    Вы можете скачивать файлы