Ссылка на приватное зеркало нашего сайта всего за 1$. Внимание количество ограничено!!!

2 сезон

iTunes

1 сезон

1

iTunes

iTunes

iTunes

1 сезон

RePack

30

ИГРА 18+

pack

ВАЖНО

!!Акция!!

Alien_RageХит недели

RePack

MK11
pack

Забери бонус

RePack

jed

!!Акция!!

Alien_Rage

RePack

fifa19

RePack

Assassins Creed: Odyssey

RePack

NEED FOR SPEED™ PAYBACK

4 сезон

9 сезон

Бесстыжие 9 сезон

Все сериалы

все сериалы на PB.wtf

RePack

FAR CRY 5
  

Интересы государства / Secret défense (Филипп Аим) [2008, триллер, BDRip 720p by msltel] 2 x MVO pb.wtf

Интересы государства через торрент pb.wtf

Размер: 3.63 GB | Добавлен: 5 лет назад | Торрент скачан:111 раз
Скачать  

27-10-2015 14:10 Интересы государства Скачать торрент  

Название: Интересы государства
Оригинальное название: Secret défense
Год выпуска: 2008
Страна: Франция
Жанр: триллер
Продолжительность: 01:41:00
Перевод: профессиональный многоголосый

Режиссёр: Филипп Аим

В ролях: Жерар Ланвен, Ваина Джоканте, Николя Дювошель, Мехди Неббу, Рашида Бракни, Симон Абкарян, Орельен Вик, Катя Левкович, Камель Бельгази, Джамел Барек, Карим Мессалти, Хассам Ганси, Николя Марье, Салем Кали, Мусса Мааскри, Саид Амади, Катрин Ижель, Жиль Милан, Асиль Раис, Анатоль Таубман

Описание: Во Франции террористические группы и разведка ведут ежедневную битву во имя радикально противоположных идеологий. Вместе с тем, террористические и тайные агенты ведут почти одинаковый образ жизни. Алекс и Аль-Барад — два из них. Первый - глава из DGSE (французский эквивалент ЦРУ или MI6 по борьбе с терроризмом), а второй руководит террористической сетью...



Качество: BDRip 720p Сравнение с исходником
Формат: MKV
Видео: MPEG-4 AVC, 3991 Кбит/с, 1280x546, 24 кадра/с
Аудио 1: русский, AC3, 384 kbps, 6 ch, 48 kHz [профессиональный многоголосый, вариант 1]
Аудио 2: русский, AC3, 224 kbps, 2 ch, 48 kHz [профессиональный многоголосый, вариант 2]
Аудио 3: французский, AC3, 448 kbps, 6 ch, 48 kHz [оригинал]
Субтитры: русские
Общее
Уникальный идентификатор : 192751134007913950068738381988641945698 (0x910284A0E4CCFC4BB8BCEA9B52DCB862)
Полное имя : D:VideoИнтересы государства.2008.BDRip.720p.mkv
Формат : Matroska
Версия формата : Version 4 / Version 2
Размер файла : 3,63 Гбайт
Продолжительность : 1 ч. 41 м.
Общий поток : 5149 Кбит/сек
Название фильма : BDRip -- STarankov
Дата кодирования : UTC 2015-10-27 11:47:35
Программа кодирования : mkvmerge v8.2.0 ('World of Adventure') 64bit
Библиотека кодирования : libebml v1.3.1 + libmatroska v1.4.2
DURATION : 01:36:41.208000000
NUMBER_OF_FRAMES : 795
NUMBER_OF_BYTES : 44453
_STATISTICS_WRITING_APP : mkvmerge v8.2.0 ('World of Adventure') 64bit
_STATISTICS_WRITING_DATE_UTC : 2015-10-27 11:47:35
_STATISTICS_TAGS : BPS DURATION NUMBER_OF_FRAMES NUMBER_OF_BYTES

Видео
Идентификатор : 1
Формат : AVC
Формат/Информация : Advanced Video Codec
Профиль формата : High@L4.1
Параметр CABAC формата : Да
Параметр ReFrames формата : 9 кадров
Идентификатор кодека : V_MPEG4/ISO/AVC
Продолжительность : 1 ч. 41 м.
Битрейт : 3991 Кбит/сек
Ширина : 1280 пикселей
Высота : 546 пикселей
Соотношение сторон : 2,35:1
Режим частоты кадров : Постоянный
Частота кадров : 24,000 кадра/сек
Цветовое пространство : YUV
Субдискретизация насыщенности : 4:2:0
Битовая глубина : 8 бит
Тип развёртки : Прогрессивная
Бит/(Пиксели*Кадры) : 0.238
Размер потока : 2,82 Гбайт (78%)
Библиотека кодирования : x264 core 146 r2538 121396c
Настройки программы : cabac=1 / ref=9 / deblock=1:-1:-1 / analyse=0x3:0x113 / me=umh / subme=10 / psy=1 / psy_rd=1.00:0.15 / mixed_ref=1 / me_range=32 / chroma_me=1 / trellis=2 / 8x8dct=1 / cqm=0 / deadzone=21,11 / fast_pskip=1 / chroma_qp_offset=-3 / threads=6 / lookahead_threads=1 / sliced_threads=0 / nr=0 / decimate=1 / interlaced=0 / bluray_compat=0 / constrained_intra=0 / bframes=12 / b_pyramid=2 / b_adapt=2 / b_bias=0 / direct=1 / weightb=1 / open_gop=0 / weightp=2 / keyint=230 / keyint_min=23 / scenecut=40 / intra_refresh=0 / rc_lookahead=40 / rc=crf / mbtree=0 / crf=19.3 / qcomp=0.60 / qpmin=0 / qpmax=69 / qpstep=4 / vbv_maxrate=40000 / vbv_bufsize=50000 / crf_max=0.0 / nal_hrd=none / filler=0 / ip_ratio=1.40 / pb_ratio=1.30 / aq=1:1.00
Язык : French
Default : Да
Forced : Нет
DURATION : 01:40:46.042000000
NUMBER_OF_FRAMES : 145105
NUMBER_OF_BYTES : 3099780228
_STATISTICS_WRITING_APP : mkvmerge v8.2.0 ('World of Adventure') 64bit
_STATISTICS_WRITING_DATE_UTC : 2015-10-27 11:47:35
_STATISTICS_TAGS : BPS DURATION NUMBER_OF_FRAMES NUMBER_OF_BYTES

Аудио #1
Идентификатор : 2
Формат : AC-3
Формат/Информация : Audio Coding 3
Расширение режима : CM (complete main)
Параметр Endianness формата : Big
Идентификатор кодека : A_AC3
Продолжительность : 1 ч. 41 м.
Вид битрейта : Постоянный
Битрейт : 384 Кбит/сек
Каналы : 6 каналов
Расположение каналов : Front: L C R, Side: L R, LFE
Частота : 48,0 КГц
Метод сжатия : С потерями
Размер потока : 277 Мбайт (7%)
Заголовок : MVO (вариант 1)
Язык : Russian
Default : Да
Forced : Нет

Аудио #2
Идентификатор : 3
Формат : AC-3
Формат/Информация : Audio Coding 3
Профиль формата : Dolby Digital
Расширение режима : CM (complete main)
Параметр Endianness формата : Big
Идентификатор кодека : A_AC3
Продолжительность : 1 ч. 41 м.
Вид битрейта : Постоянный
Битрейт : 224 Кбит/сек
Каналы : 2 канала
Расположение каналов : Front: L R
Частота : 48,0 КГц
Метод сжатия : С потерями
Размер потока : 162 Мбайт (4%)
Заголовок : MVO (вариант 2)
Язык : Russian
Default : Нет
Forced : Нет

Аудио #3
Идентификатор : 4
Формат : AC-3
Формат/Информация : Audio Coding 3
Расширение режима : CM (complete main)
Параметр Endianness формата : Big
Идентификатор кодека : A_AC3
Продолжительность : 1 ч. 41 м.
Вид битрейта : Постоянный
Битрейт : 448 Кбит/сек
Каналы : 6 каналов
Расположение каналов : Front: L C R, Side: L R, LFE
Частота : 48,0 КГц
Метод сжатия : С потерями
Размер потока : 324 Мбайт (9%)
Заголовок : Original
Язык : French
Default : Нет
Forced : Нет

Текст
Идентификатор : 5
Формат : UTF-8
Идентификатор кодека : S_TEXT/UTF8
Идентификатор кодека/Информация : UTF-8 Plain Text
Заголовок : русский
Язык : Russian
Default : Нет
Forced : Нет
pb.wtf



Скачать Интересы государства через торрент http://i60.fastpic.ru/big/2015/1027/fc/8f507c659deab5b793faad5f6df4e8fc.jpg Скачать фильм Интересы государства через торрент бесплантно в хорошем качестве Описание: Во Франции террористические группы и разведка ведут ежедневную битву во имя радикально противоположных идеологий. Вместе с тем, ... 10 10 4
Info! Золотая раздача, скачанное не засчитывается.
Торрент: Зарегистрирован [2015-10-27 14:10] · скачан: 111 раз
Статус: √ проверено
Размер: 3.63 GB
Как cкачать? Как скачать Интересы государства через торрент | qTorrent

% Раздел Тема Автор DL S | L
Фильмы 2006-2008 [ 2.28 GB ] Интересы государства / Secret défense [2008 BDRip AVC by msltel] 2 x MVO msltel Скачать
1 | 0

28-11-2019 20:33  

Отключить всю рекламу на сайте

    Дорогой пользователь! Огромная просьба, поблагодарите релизера, оцените раздачу и оставьте свои комментарий, если Вы скачали Интересы государства через торрент бесплатно! Внесите свою лепту в развитие PiratBit!
    Комментировать посты могут только пользователи прошедшие не сложную регистрацию
    Показать сообщения:    

    Интересы государства через торрент
    Скачать бесплатно Интересы государства
    Интересы государства скачать торрент
    Интересы государства смотреть онлайн
    Cкачать фильм Интересы государства бесплатно
    Интересы государства скачать торрент в хорошем качестве
    Интересы государства смотреть онлайн бесплатно в хорошем качестве


    Вы не можете начинать темы
    Вы не можете отвечать на сообщения
    Вы не можете редактировать свои сообщения
    Вы не можете удалять свои сообщения
    Вы не можете голосовать в опросах
    Вы не можете прикреплять файлы к сообщениям
    Вы можете скачивать файлы