Ссылка на приватное зеркало всего за 1$. Внимание количество ограничено!!!

iTunes

iTunes

iTunes

1

iTunes

iTunes

iTunes

iTunes

iTunes

30
pack

Новость дня

ВАЖНО

!!Акция!!

Alien_RageХит недели

RePack

Resident Evil 21

ИГРА 18+

pack

RePack

jed

!!Акция!!

Alien_Rage

RePack

fifa19

RePack

Assassins Creed: Odyssey

RePack

NEED FOR SPEED™ PAYBACK

4 сезон

9 сезон

Бесстыжие 9 сезон

Все сериалы

все сериалы на PB.wtf

RePack

FAR CRY 5
  

Парень с нашего кладбища (Илья Чижиков, Антон Чижиков) [2015 г., комедия, триллер, WEB-DLRip, "iTunes'] pb.wtf

Парень с нашего кладбища через торрент pb.wtf

Размер: 702 MB | Добавлен: 4 года 6 мес. назад | Торрент скачан:425 раз
Скачать  

27-10-2015 18:02 Парень с нашего кладбища Скачать торрент  

Парень с нашего кладбища
Год выпуска: 2015
Страна: Россия / Кинокомпания CTB
Жанр: комедия, триллер
Продолжительность: 01:27:22
Перевод: Не требуется (iTunes)

Режиссер: Илья Чижиков, Антон Чижиков

IMDB 6.70 (10)


В ролях: Александр Паль, Игорь Жижикин, Владимир Сычев, Александр Ильин, Кристина Казинская, Полина Шашуро, Алексей Онежен, Евгений Волоцкий

Описание: Двадцатипятилетний провинциальный парень Коля приезжает в Москву к своему дяде. Ему нужно как можно быстрее отдать долг, который висит на нем с прошлого места работы, он готов работать каждый день. Точнее, каждую ночь. Так как дядя устраивает племянника ночным сторожем на... кладбище. Новый сторож приступает к первому дежурству, но к тому, что происходит на кладбище, когда стемнеет, он оказывается не готов. А впереди еще не одна ночь, и Коле нужно сделать выбор: разобраться с таинственными гостями или сбежать.

Качество: WEB-DLRip
Формат: AVI
Видео кодек: XviD
Аудио кодек: MP3
Видео: 640x352 (1.82:1), 24.000 fps, XviD build 50 ~986 kbps avg, 0.18 bit/pixel
Аудио: 48 kHz, MPEG Layer 3, 2 ch, ~128.00 kbps avg
скриншот   скриншот   скриншот   скриншот   скриншот   скриншот  

Общее
Полное имя : F:\кино\Парень с нашего кладбища.2015.O.WEB-DLRip.avi
Формат : AVI
Формат/Информация : Audio Video Interleave
Размер файла : 702 Мбайт
Продолжительность : 1 ч. 27 м.
Общий поток : 1124 Кбит/сек
Программа кодирования : VirtualDubMod 1.5.10.3 | www.virtualdub-fr.org || (build 2550/release)
Библиотека кодирования : VirtualDubMod build 2550/release

Видео
Идентификатор : 0
Формат : MPEG-4 Visual
Профиль формата : Advanced Simple@L5
Параметр BVOP формата : 2
Параметр QPel формата : Нет
Параметр GMC формата : Без точки перехода
Параметр матрицы формата : Default (H.263)
Идентификатор кодека : XVID
Идентификатор кодека/Подсказка : XviD
Продолжительность : 1 ч. 27 м.
Битрейт : 987 Кбит/сек
Ширина : 640 пикселей
Высота : 352 пикселя
Соотношение сторон : 16:9
Частота кадров : 24,000 кадра/сек
Цветовое пространство : YUV
Субдискретизация насыщенности : 4:2:0
Битовая глубина : 8 бит
Тип развёртки : Прогрессивная
Метод сжатия : С потерями
Бит/(Пиксели*Кадры) : 0.183
Размер потока : 617 Мбайт (88%)
Библиотека кодирования : XviD 1.2.1 (UTC 2008-12-04)

Аудио
Идентификатор : 1
Формат : MPEG Audio
Версия формата : Version 1
Профиль формата : Layer 3
Режим : Joint stereo
Расширение режима : MS Stereo
Идентификатор кодека : 55
Идентификатор кодека/Подсказка : MP3
Продолжительность : 1 ч. 27 м.
Вид битрейта : Постоянный
Битрейт : 128 Кбит/сек
Каналы : 2 канала
Частота : 48,0 КГц
Метод сжатия : С потерями
Размер потока : 80,0 Мбайт (11%)
Выравнивание : Соединение по промежуткам
Продолжительность промежутка : 42 мс. (1,00 видеокадр)
Время предзагрузки промежутка : 504 мс.
Библиотека кодирования : LAME3.99r
Настройки программы : -m j -V 4 -q 2 -lowpass 17 -b 128

pb.wtf



Скачать Парень с нашего кладбища через торрент http://pic1.kartinco.top/images/10/kqcwy.jpg Скачать фильм Парень с нашего кладбища через торрент бесплантно в хорошем качестве Описание: Двадцаятилетний провинциальный парень Коля приезжает в Москву к своему дяде. Ему нужно как можно быстрее отдать долг, который ... 8.2 10 17
Торрент: Зарегистрирован [2015-10-27 18:02] · скачан: 425 раз
Статус: √ проверено
Размер: 702 MB
Как cкачать? Как скачать Парень с нашего кладбища через торрент | qTorrent

% Раздел Тема Автор DL S | L
Наши новые фильмы 2015 [ 1.37 GB ] Парень с нашего кладбища [2015 WEB-DLRip [Русский] Ворон Скачать
1 | 0
Наши фильмы (HD, WEB-DL 720p, 1080p) [ 3.36 GB ] Парень с нашего кладбища [2015 WEB-DL 1080p [Русский] Ворон Скачать
1 | 0
Наши фильмы (HD, WEB-DL 720p, 1080p) [ 2.72 GB ] Парень с нашего кладбища [2015 WEB-DL 720p / ] Ворон Скачать
1 | 0

28-11-2019 20:33  

Отключить всю рекламу на сайте

28-10-2015 09:03 Парень с нашего кладбища Скачать торрент  

Один раз посмотреть можно. Твердая 3+...pb.wtf



28-10-2015 16:20 Парень с нашего кладбища Скачать торрент  

местами и смешно дажеpb.wtf



30-10-2015 13:38 Парень с нашего кладбища Скачать торрент  

Да хороший фильм))pb.wtf



    Дорогой пользователь! Огромная просьба, поблагодарите релизера, оцените раздачу и оставьте свои комментарий, если Вы скачали Парень с нашего кладбища через торрент бесплатно! Внесите свою лепту в развитие PiratBit!
    Комментировать посты могут только пользователи прошедшие не сложную регистрацию
    Показать сообщения:    

    Парень с нашего кладбища через торрент
    Скачать бесплатно Парень с нашего кладбища
    Парень с нашего кладбища скачать торрент
    Парень с нашего кладбища смотреть онлайн
    Cкачать фильм Парень с нашего кладбища бесплатно
    Парень с нашего кладбища скачать торрент в хорошем качестве
    Парень с нашего кладбища смотреть онлайн бесплатно в хорошем качестве


    Вы не можете начинать темы
    Вы не можете отвечать на сообщения
    Вы не можете редактировать свои сообщения
    Вы не можете удалять свои сообщения
    Вы не можете голосовать в опросах
    Вы не можете прикреплять файлы к сообщениям
    Вы можете скачивать файлы