1 сезон

1 сезон

iTunes

1

КиноПоиск HD

Кинопоиск HD

iTunes

13

1 сезон

RePack

30

Новинка

ВАЖНО

ИГРА 18+

pack

RePack

MK11
pack

Легкие деньги

RePack

jed

RePack

fifa19

RePack

RDR2

RePack

NEED FOR SPEED™ PAYBACK

4 сезон

9 сезон

Бесстыжие 9 сезон

Все сериалы

все сериалы на PB.wtf

RePack

FAR CRY 5
  
Magnet ссылка

Признания опасного человека / Confessions of a Dangerous Mind (Джордж Клуни / George Clooney) [2002, США, Германия, Канада, триллер, драма, мелодрама, BDRip-AVC от sokol_ok] Dub pb.wtf

Признания опасного человека через торрент pb.wtf

Раздают: 1 [ 0 KB/s ]
Размер: 1.45 GB | Добавлен: 5 лет 5 мес. назад | Торрент скачан:61 раз
Скачать  

27-10-2015 18:48 Признания опасного человека Скачать торрент  

Признания опасного человека
Confessions of a Dangerous Mind

«When you lead two different lives, it's easy to forget what side you're on»




Страна: США, Германия, Канада
Жанр: триллер, драма, мелодрама, комедия, криминал, биография

Год выпуска: 2002
Продолжительность: 01:53:27

Перевод: Профессиональный (полное дублирование)
Субтитры: русские, английские
Оригинальная аудиодорожка: нет

Режиссер: Джордж Клуни / George Clooney

В ролях: Сэм Рокуэлл, Дрю Бэрримор, Джордж Клуни, Джулия Робертс, Рутгер Хауэр, Мэгги Джилленхол, Дик Кларк, Мишель Суини, Челси Сеси, Майкл Сера, Айми Роуз Амброзиак, Изабель Блэ

Описание:
По автобиографической книге Чака Бэрриса. Чак Бэррис был автором популярнейших телевизионных развлекательных программ шестидесятых годов. Но не всегда у него дела шли гладко, и однажды, в период очередного кризиса, ему предлагает работу ЦРУ. Бэррису позарез нужны деньги и он соглашается.
Он проходит военную подготовку, где в совершенстве овладевает искусством профессионально отбирать человеческие жизни. Теперь он живет двумя жизнями: в одной он убивает тех, кого правительство сочло за врагов, а в другой он по-прежнему создатель рейтинговых телевизионных шоу.


Раздача от:

Автор рипа: Stalker oK

Сэмпл

Качество видео: BDRip-AVC [Blu-ray Remux 1080p]
Формат видео: MKV
Видео кодек: AVC
Аудио кодек: AC3
Видео: 1384 Кбит/сек, 960x400 (2.40:1), 23,976 кадр/сек, AVC
Аудио: русский, 448 Кбит/сек, 48 КГц, 16 бит, 5.1, AC3
Навигация по главам: есть
General
Unique ID : 215822525527088127796566993001716744159 (0xA25DE80DAB8E35A8BA1AE9E9A5C57FDF)
Complete name : N:\Rips\Confessions of a Dangerous Mind\Confessions.of.a.Dangerous.Mind.2002.BDRip-AVC.Dub.1.45Gb...stalkerok.new-team.mkv
Format : Matroska
File size : 1.45 GiB
Duration : 1h 53mn
Overall bit rate : 1 834 Kbps
Movie name : Confessions of a Dangerous Mind (2002) (New-Team) (Rip by Stalker oK)
Encoded date : UTC 2015-10-27 18:20:59
Writing application : mkvmerge v7.9.0 ('Birds') 64bit
Writing library : libebml v1.3.1 + libmatroska v1.4.2

Video
ID : 1
Format : AVC
Format/Info : Advanced Video Codec
Format profile : High@L4.1
Format settings, CABAC : Yes
Format settings, ReFrames : 12 frames
Codec ID : V_MPEG4/ISO/AVC
Duration : 1h 53mn
Bit rate : 1 384 Kbps
Width : 960 pixels
Height : 400 pixels
Display aspect ratio : 2.40:1
Frame rate : 23.976 fps
Color space : YUV
Chroma subsampling : 4:2:0
Bit depth : 8 bits
Scan type : Progressive
Bits/(Pixel*Frame) : 0.150
Stream size : 1.07 GiB (74%)
Title : Confessions of a Dangerous Mind (2002) (New-Team) (Rip by Stalker oK)
Writing library : x264 core 146 r2538kMod 121396c
Encoding settings : cabac=1 / ref=12 / deblock=1:-3:-3 / analyse=0x3:0x133 / me=umh / subme=11 / psy=1 / fade_compensate=0.00 / psy_rd=1.08:0.15 / mixed_ref=1 / me_range=48 / chroma_me=1 / trellis=2 / 8x8dct=1 / cqm=0 / deadzone=21,11 / fast_pskip=0 / chroma_qp_offset=-3 / threads=12 / lookahead_threads=3 / sliced_threads=0 / nr=0 / decimate=0 / interlaced=0 / bluray_compat=0 / constrained_intra=0 / fgo=0 / bframes=13 / b_pyramid=2 / b_adapt=2 / b_bias=0 / direct=3 / weightb=1 / open_gop=0 / weightp=2 / keyint=240 / keyint_min=23 / scenecut=40 / intra_refresh=0 / rc_lookahead=40 / rc=2pass / mbtree=0 / bitrate=1384 / ratetol=1.0 / qcomp=0.70 / qpmin=0 / qpmax=69 / qpstep=4 / cplxblur=20.0 / qblur=0.5 / vbv_maxrate=50000 / vbv_bufsize=62500 / nal_hrd=none / filler=0 / ip_ratio=1.40 / pb_ratio=1.30 / aq=3:0.92

Audio
ID : 2
Format : AC-3
Format/Info : Audio Coding 3
Mode extension : CM (complete main)
Codec ID : A_AC3
Duration : 1h 53mn
Bit rate mode : Constant
Bit rate : 448 Kbps
Channel(s) : 6 channels
Channel positions : Front: L C R, Side: L R, LFE
Sampling rate : 48.0 KHz
Bit depth : 16 bits
Compression mode : Lossy
Stream size : 364 MiB (24%)
Language : Russian

Text #1
ID : 3
Format : UTF-8
Codec ID : S_TEXT/UTF8
Codec ID/Info : UTF-8 Plain Text
Language : Russian

Text #2
ID : 4
Format : UTF-8
Codec ID : S_TEXT/UTF8
Codec ID/Info : UTF-8 Plain Text
Language : English

Menu
00:00:00.000 : en:Chapter 1
00:06:04.197 : en:Chapter 2
00:10:02.393 : en:Chapter 3
00:15:29.177 : en:Chapter 4
00:20:42.450 : en:Chapter 5
00:24:13.576 : en:Chapter 6
00:31:17.875 : en:Chapter 7
00:37:56.900 : en:Chapter 8
00:44:18.447 : en:Chapter 9
00:52:12.755 : en:Chapter 10
00:56:36.684 : en:Chapter 11
01:03:24.634 : en:Chapter 12
01:07:37.052 : en:Chapter 13
01:15:31.985 : en:Chapter 14
01:25:24.368 : en:Chapter 15
01:34:39.298 : en:Chapter 16
01:41:51.689 : en:Chapter 17
01:46:28.548 : en:Chapter 18
pb.wtf



Скачать Признания опасного человека через торрент http://i72.fastpic.ru/big/2015/0531/46/68ef8a2783b58e5344cc30bbd3f1b046.png Скачать фильм Признания опасного человека через торрент бесплантно в хорошем качестве Описание:По автобиографической книге Чака Бэрриса. Чак Бэррис был автором популярнейших телевизионных развлекательных программ шестидесятых ... 10 10 3
Торрент: Зарегистрирован [2015-10-27 18:48] · скачан: 61 раз
Статус: √ проверено
Размер: 1.45 GB
Как cкачать? Как скачать Признания опасного человека через торрент | UTorrent

% Раздел Тема Автор DL S | L
Фильмы 2001-2005 [ 2.18 GB ] Признания опасного человека / Confessions of a Dangerous Mind [2002 Германия BDRip-AVC от sokol_ok] Dub sokol_ok Скачать
2 | 0

28-11-2019 20:33  

Отключить всю рекламу на сайте

    Дорогой пользователь! Огромная просьба, поблагодарите релизера, оцените раздачу и оставьте свои комментарий, если Вы скачали Признания опасного человека через торрент бесплатно! Внесите свою лепту в развитие PiratBit!
    Комментировать посты могут только пользователи прошедшие не сложную регистрацию
    Показать сообщения:    

    Признания опасного человека через торрент
    Скачать бесплатно Признания опасного человека
    Признания опасного человека скачать торрент
    Признания опасного человека смотреть онлайн
    Cкачать фильм Признания опасного человека бесплатно
    Признания опасного человека скачать торрент в хорошем качестве
    Признания опасного человека смотреть онлайн бесплатно в хорошем качестве


    Вы не можете начинать темы
    Вы не можете отвечать на сообщения
    Вы не можете редактировать свои сообщения
    Вы не можете удалять свои сообщения
    Вы не можете голосовать в опросах
    Вы не можете прикреплять файлы к сообщениям
    Вы можете скачивать файлы