Ссылка на приватное зеркало нашего сайта всего за 1$. Внимание количество ограничено!!!

2 сезон

iTunes

1 сезон

1

2 сезон

2 сезон

iTunes

1 сезон

RePack

30

Ultimate

ВАЖНО

ИГРА 18+

pack

RePack

MK11
pack

Забери бонус

RePack

jed

!!Акция!!

Alien_Rage

RePack

fifa19

RePack

Assassins Creed: Odyssey

RePack

NEED FOR SPEED™ PAYBACK

4 сезон

9 сезон

Бесстыжие 9 сезон

Все сериалы

все сериалы на PB.wtf

RePack

FAR CRY 5
  

Достоинство / The Timber (Энтони О’Брайэн) [2015, драма, приключения, вестерн, HDRip, Любительский одноголосый [datynet] pb.wtf

Достоинство через торрент pb.wtf

Размер: 1.37 GB | Добавлен: 5 лет назад | Торрент скачан:212 раз
Скачать  

28-10-2015 17:13 Достоинство Скачать торрент  


Достоинство / The Timber
««Fortunes will be made, lives will be lost»»

ИНФОРМАЦИЯ:
Год выпуска:2015
Страна: США
Жанр: драма, приключения, вестерн
Продолжительность: 01:20:19
Перевод: Любительский одноголосый [datynet]
Режиссер: Энтони О’Брайэн

В Ролях:


Джеймс Рэнсон (Wyatt), Элиза Ласовски, Марк Кавен (Colonel Rupert Thomas), Уильям Гонт, Дэвид Бэйли, Аттила Арпа (Patrick The Bear), Шон О’Хаган (Jim Broadswell), Мариус Флориан (Running man), Разван Георгиу (Guard1), Мария Дойл Кеннеди (Maggie), Джош Пек (Samuel), Alfred Wegeman (Young boy)

Описание:
Год 1889. В ледяной Аляске, во время золотой лихорадки, братья Самуэль (Джош Пек) и Уайетт (Джеймс Рансон) отправляются в опасное путешествие. Для того, чтобы сохранить честь дома, они должны найти тираничного своего отца, который много лет назад их оставил. Впереди у них куча неприятностей с жестокими бандитами. Мрачные сцены и сырой климат меркнут перед алчностью, жажды власти и смерти, с которыми они сталкиваются.

  • Мировая премьера:27 февраля 2015

    ТЕХ.ДАННЫЕ:
    Качество: HDRip
    Формат: AVI
    Видео: XviD, 720x304 (2.35:1), 1882 kbps, 23,976 fps, 0,359 bpp
    Аудио: AC3 / 5.1 / 48 kHz / 448 kbps / 16 bit


    General
    Complete name : D:\Торенты\Dostynsvo.2015.L1.HDRip.avi
    Format : AVI
    Format/Info : Audio Video Interleave
    File size : 1.37 GiB
    Duration : 1h 20mn
    Overall bit rate : 2 436 Kbps
    Writing application : VirtualDubMod 1.5.10.2 (build 2540/release)
    Writing library : VirtualDubMod build 2540/release

    Video
    ID : 0
    Format : MPEG-4 Visual
    Format profile : Advanced Simple@L5
    Format settings, BVOP : 2
    Format settings, QPel : No
    Format settings, GMC : No warppoints
    Format settings, Matrix : Default (MPEG)
    Codec ID : XVID
    Codec ID/Hint : XviD
    Duration : 1h 20mn
    Bit rate : 1 883 Kbps
    Width : 720 pixels
    Height : 304 pixels
    Display aspect ratio : 2.35:1
    Frame rate : 23.976 fps
    Color space : YUV
    Chroma subsampling : 4:2:0
    Bit depth : 8 bits
    Scan type : Progressive
    Compression mode : Lossy
    Bits/(Pixel*Frame) : 0.359
    Stream size : 1.06 GiB (77%)
    Writing library : XviD 1.2.1 (UTC 2008-12-04)

    Audio
    ID : 1
    Format : AC-3
    Format/Info : Audio Coding 3
    Mode extension : CM (complete main)
    Codec ID : 2000
    Duration : 1h 20mn
    Bit rate mode : Constant
    Bit rate : 448 Kbps
    Channel(s) : 6 channels
    Channel positions : Front: L C R, Side: L R, LFE
    Sampling rate : 48.0 KHz
    Bit depth : 16 bits
    Compression mode : Lossy
    Stream size : 257 MiB (18%)
    Alignment : Split accross interleaves
    Скриншоты:


    © Оформление by Ворон
    pb.wtf



  • Скачать Достоинство через торрент http://pic.kartinco.top/images/6/ordi9.jpg Скачать фильм Достоинство через торрент бесплантно в хорошем качестве Описание: Год 1889. В ледяной Аляске, во время золотой лихорадки, братья Самуэль (Джош Пек) и Уайетт (Джеймс Рансон) отправляются в опасное ... 9.9 10 12
    Торрент: Зарегистрирован [2015-10-28 17:13] · скачан: 212 раз
    Статус: T временная
    Размер: 1.37 GB
    Как cкачать? Как скачать Достоинство через торрент | qTorrent

    % Раздел Тема Автор DL S | L
    T Фильмы 2015 [DVDrip, WEB-DLRip, HDrip] [ 1.37 GB ] Достоинство / The Timber [2015 HDRip] многоголосый [Официальный звук] Ворон Скачать
    1 | 0

    28-11-2019 20:33  

    Отключить всю рекламу на сайте

      Дорогой пользователь! Огромная просьба, поблагодарите релизера, оцените раздачу и оставьте свои комментарий, если Вы скачали Достоинство через торрент бесплатно! Внесите свою лепту в развитие PiratBit!
      Комментировать посты могут только пользователи прошедшие не сложную регистрацию
      Показать сообщения:    

      Достоинство через торрент
      Скачать бесплатно Достоинство
      Достоинство скачать торрент
      Достоинство смотреть онлайн
      Cкачать фильм Достоинство бесплатно
      Достоинство скачать торрент в хорошем качестве
      Достоинство смотреть онлайн бесплатно в хорошем качестве


      Вы не можете начинать темы
      Вы не можете отвечать на сообщения
      Вы не можете редактировать свои сообщения
      Вы не можете удалять свои сообщения
      Вы не можете голосовать в опросах
      Вы не можете прикреплять файлы к сообщениям
      Вы можете скачивать файлы