Ссылка на приватное зеркало нашего сайта всего за 1$. Внимание количество ограничено!!!

2 сезон

iTunes

1 сезон

1

2 сезон

2 сезон

iTunes

1 сезон

RePack

30

Ultimate

ВАЖНО

ИГРА 18+

pack

RePack

MK11
pack

Забери бонус

RePack

jed

!!Акция!!

Alien_Rage

RePack

fifa19

RePack

Assassins Creed: Odyssey

RePack

NEED FOR SPEED™ PAYBACK

4 сезон

9 сезон

Бесстыжие 9 сезон

Все сериалы

все сериалы на PB.wtf

RePack

FAR CRY 5
  

Зараженная / Maggie (Генри Хобсон / Henry Hobson) [2014, драма, триллер, ужасы, BDRip-AVC от potroks] MVO [iTunes] pb.wtf

Зараженная через торрент pb.wtf

Размер: 2.14 GB | Добавлен: 5 лет назад | Торрент скачан:416 раз
Скачать  

28-10-2015 20:28 Зараженная Скачать торрент  

Зараженная / Maggie
Год выпуска: 2014
Страна: США, Швейцария / Lionsgate, Grindstone Entertainment Group, Gold Star Films
Жанр: драма, триллер, ужасы
Продолжительность: 01:35:03
Перевод: Профессиональный (многоголосый) [iTunes]
Субтитры: русские, английские (Full), английские (SDH), английские (SDH-Colored)
Навигация по главам: есть
Режиссер: Генри Хобсон / Henry Hobson
В ролях:

Арнольд Шварценеггер (Wade Vogel), Эбигейл Бреслин (Maggie Vogel), Джоэли Ричардсон (Caroline), Дуглас М. Гриффин (Ray), Дж.Д. Эвермор (Holt), Рэйчел Уитман Гровс (Bonnie), Джоди Мур (Dr. Vern Kaplan), Брайс Ромеро (Trent), Рэден Грир (Allie), Эйден Флауэрс (Bobby), Карсен Флауэрс (Molly), Уолтер Фон Хьюн (Security Officer)
Описание: Девочка-подросток Мэгги заражается болезнью, медленно превращающей инфицированных в зомби. Правительство организует карантин для инфицированных, где их помещают в изоляцию. Её любящий отец не готов помещать её в карантин, и она живёт вместе с ним.

Качество: BDRip-AVC
Формат: MKV
Видео кодек: AVC
Аудио кодек: AC3
Видео: 1080x450 (2.40:1), 2386 kbps, 23,976 fps, 0,205 bit/pixel
Аудио №1: AC3 / 5.1 / 48 kHz / 384 kbps / 16 bit | RUS
Аудио №2: AC3 / 5.1 / 48 kHz / 448 kbps / 16 bit | RUS

Релиз группы:
Автор рипа: potroks

Код:

General
Unique ID                                : 212118742558624158100463556792902116437 (0x9F9495744E64B6439FE3CD8ADFF66455)
Complete name                            : N:\Драма\Meggi.2014.DUAL.BDRip.x264.-HELLYWOOD.mkv
Format                                   : Matroska
Format version                           : Version 4 / Version 2
File size                                : 2.14 GiB
Duration                                 : 1h 35mn
Overall bit rate                         : 3 220 Kbps
Movie name                               : Maggie (2015) - HELLYWOOD
Encoded date                             : UTC 2010-02-22 21:41:31
Writing application                      : mkvmerge v5.8.0 ('No Sleep / Pillow') built on Sep 30 2012 10:57:14
Writing library                          : libebml v1.3.0 + libmatroska v1.4.0

Video
ID                                       : 1
Format                                   : AVC
Format/Info                              : Advanced Video Codec
Format profile                           : High@L4.1
Format settings, CABAC                   : Yes
Format settings, ReFrames                : 10 frames
Codec ID                                 : V_MPEG4/ISO/AVC
Duration                                 : 1h 35mn
Bit rate                                 : 2 386 Kbps
Width                                    : 1 080 pixels
Height                                   : 450 pixels
Display aspect ratio                     : 2.40:1
Frame rate                               : 23.976 fps
Color space                              : YUV
Chroma subsampling                       : 4:2:0
Bit depth                                : 8 bits
Scan type                                : Progressive
Bits/(Pixel*Frame)                       : 0.205
Stream size                              : 1.54 GiB (72%)
Title                                    : potroks
Writing library                          : x264 core 146 r2538 121396c
Encoding settings                        : cabac=1 / ref=10 / deblock=1:-3:-3 / analyse=0x3:0x113 / me=umh / subme=11 / psy=1 / psy_rd=0.94:0.00 / mixed_ref=1 / me_range=48 / chroma_me=1 / trellis=2 / 8x8dct=1 / cqm=0 / deadzone=21,11 / fast_pskip=0 / chroma_qp_offset=-2 / threads=9 / lookahead_threads=2 / sliced_threads=0 / nr=0 / decimate=1 / interlaced=0 / bluray_compat=0 / constrained_intra=0 / bframes=11 / b_pyramid=2 / b_adapt=2 / b_bias=0 / direct=3 / weightb=1 / open_gop=0 / weightp=2 / keyint=250 / keyint_min=23 / scenecut=40 / intra_refresh=0 / rc_lookahead=60 / rc=2pass / mbtree=0 / bitrate=2386 / ratetol=1.0 / qcomp=0.70 / qpmin=0 / qpmax=69 / qpstep=4 / cplxblur=20.0 / qblur=0.5 / vbv_maxrate=14000 / vbv_bufsize=14000 / nal_hrd=none / filler=0 / ip_ratio=1.35 / pb_ratio=1.25 / aq=1:1.00
Language                                 : English
Default                                  : Yes
Forced                                   : No

Audio #1
ID                                       : 2
Format                                   : AC-3
Format/Info                              : Audio Coding 3
Mode extension                           : CM (complete main)
Codec ID                                 : A_AC3
Duration                                 : 1h 35mn
Bit rate mode                            : Constant
Bit rate                                 : 384 Kbps
Channel(s)                               : 6 channels
Channel positions                        : Front: L C R, Side: L R, LFE
Sampling rate                            : 48.0 KHz
Bit depth                                : 16 bits
Compression mode                         : Lossy
Stream size                              : 261 MiB (12%)
Title                                    : MVO | DD 5.1 @ 384 kbps - iTunes
Language                                 : Russian
Default                                  : Yes
Forced                                   : No

Audio #2
ID                                       : 3
Format                                   : AC-3
Format/Info                              : Audio Coding 3
Mode extension                           : CM (complete main)
Codec ID                                 : A_AC3
Duration                                 : 1h 35mn
Bit rate mode                            : Constant
Bit rate                                 : 448 Kbps
Channel(s)                               : 6 channels
Channel positions                        : Front: L C R, Side: L R, LFE
Sampling rate                            : 48.0 KHz
Bit depth                                : 16 bits
Compression mode                         : Lossy
Stream size                              : 305 MiB (14%)
Title                                    : Original | DD 5.1 @ 448 kbps
Language                                 : English
Default                                  : No
Forced                                   : No

Text #1
ID                                       : 4
Format                                   : UTF-8
Codec ID                                 : S_TEXT/UTF8
Codec ID/Info                            : UTF-8 Plain Text
Language                                 : Russian
Default                                  : No
Forced                                   : No

Text #2
ID                                       : 5
Format                                   : UTF-8
Codec ID                                 : S_TEXT/UTF8
Codec ID/Info                            : UTF-8 Plain Text
Title                                    : Full
Language                                 : English
Default                                  : No
Forced                                   : No

Text #3
ID                                       : 6
Format                                   : UTF-8
Codec ID                                 : S_TEXT/UTF8
Codec ID/Info                            : UTF-8 Plain Text
Title                                    : SDH
Language                                 : English
Default                                  : No
Forced                                   : No

Text #4
ID                                       : 7
Format                                   : UTF-8
Codec ID                                 : S_TEXT/UTF8
Codec ID/Info                            : UTF-8 Plain Text
Title                                    : SDH-Colored
Language                                 : English
Default                                  : No
Forced                                   : No

Menu
00:00:00.000                             : en:Chapter 01
00:05:52.935                             : en:Chapter 02
00:11:26.102                             : en:Chapter 03
00:15:55.120                             : en:Chapter 04
00:21:30.497                             : en:Chapter 05
00:26:50.609                             : en:Chapter 06
00:35:09.065                             : en:Chapter 07
00:39:17.938                             : en:Chapter 08
00:43:35.779                             : en:Chapter 09
00:50:51.131                             : en:Chapter 10
00:58:38.014                             : en:Chapter 11
01:02:09.517                             : en:Chapter 12
01:10:28.807                             : en:Chapter 13
01:17:32.189                             : en:Chapter 14
01:23:27.502                             : en:Chapter 15
01:26:38.693                             : en:Chapter 16

pb.wtf



Скачать Зараженная через торрент http://i74.fastpic.ru/big/2015/1028/e9/327b92831ded4934d1d0b7e7036f75e9.png Скачать фильм Зараженная через торрент бесплантно в хорошем качестве Описание: Девочка-подросток Мэгги заражается болезнью, медленно превращающей инфицированных в зомби. Правительство организует карантин для ... 8.6 10 16
Info! Золотая раздача, скачанное не засчитывается.
Торрент: Зарегистрирован [2015-10-28 20:28] · скачан: 416 раз
Статус: √ проверено
Размер: 2.14 GB
Как cкачать? Как скачать Зараженная через торрент | qTorrent

% Раздел Тема Автор DL S | L
Фильмы (DVD фильмы) [ 6.13 GB ] Зараженная / Maggie [2015 DVD9] R5 voovaz Скачать
1 | 0
Фильмы 2015 [DVDrip, WEB-DLRip, HDrip] [ 1.46 GB ] Зараженная / Maggie [2015 HDRip многоголосый Ворон Скачать
1 | 0
Фильмы [HD 720p, 1080p] (Хороший звук DUB, MVO) [ 12.54 GB ] Зараженная / Maggie [2015 BDRip 1080p многоголосый Ворон Скачать
1 | 0
Фильмы [HD 720p, 1080p] (Хороший звук DUB, MVO) [ 5.92 GB ] Зараженная / Maggie [2015 BDRip 720p многоголосый Ворон Скачать
1 | 0

28-11-2019 20:33  

Отключить всю рекламу на сайте

29-10-2015 20:21 Зараженная Скачать торрент  

что за сэмпл?? как понять какой перевод???минуту тишины посмотрел, а перевод хер услышал!!!pb.wtf



12-11-2017 18:11 Зараженная Скачать торрент  

potroks, спасибо! ты как всегда на высоте
мой любимый размерчик 2гб!pb.wtf



    Дорогой пользователь! Огромная просьба, поблагодарите релизера, оцените раздачу и оставьте свои комментарий, если Вы скачали Зараженная через торрент бесплатно! Внесите свою лепту в развитие PiratBit!
    Комментировать посты могут только пользователи прошедшие не сложную регистрацию
    Показать сообщения:    

    Зараженная через торрент
    Скачать бесплатно Зараженная
    Зараженная скачать торрент
    Зараженная смотреть онлайн
    Cкачать фильм Зараженная бесплатно
    Зараженная скачать торрент в хорошем качестве
    Зараженная смотреть онлайн бесплатно в хорошем качестве


    Вы не можете начинать темы
    Вы не можете отвечать на сообщения
    Вы не можете редактировать свои сообщения
    Вы не можете удалять свои сообщения
    Вы не можете голосовать в опросах
    Вы не можете прикреплять файлы к сообщениям
    Вы можете скачивать файлы