Ссылка на приватное зеркало нашего сайта всего за 1$. Внимание количество ограничено!!!

2 сезон

iTunes

1 сезон

1

2 сезон

2 сезон

iTunes

1 сезон

RePack

30

Новинка

ВАЖНО

ИГРА 18+

pack

RePack

MK11
pack

Забери бонус

RePack

jed

!!Акция!!

Alien_Rage

RePack

fifa19

RePack

Assassins Creed: Odyssey

RePack

NEED FOR SPEED™ PAYBACK

4 сезон

9 сезон

Бесстыжие 9 сезон

Все сериалы

все сериалы на PB.wtf

RePack

FAR CRY 5
  

Пожиратели / Eaters (Джонни Табор) [2015 г., ужасы, комедия, DVDRip, Любительский (двухголосый) [2D] DeadSno & den904] pb.wtf

Пожиратели через торрент pb.wtf

Размер: 1.1 GB | Добавлен: 5 лет 1 мес. назад | Торрент скачан:114 раз
Скачать  

28-10-2015 22:36 Пожиратели Скачать торрент  

Пожиратели / Eaters
Год выпуска: 2015
Страна: США
Жанр: ужасы, комедия
Продолжительность: 90 мин. / 01:30
Перевод: Любительский (двухголосый) ([2D] DeadSno & den904)
Субтитры: отсутствуют

Режиссер: Джонни Табор
Продюссер: Энтони Кинг, Нэйтан Е. Митчелл
Сценарий: Джонни Табор

Премьера в мире: 6 октября 2015

IMDB 4.40 (92)


В ролях: Марсель Боуман, Роберт Дин, Тристан Пэрриш Мур, Jonathan Haltiwanger, Ханна Рисингер, Algernon D'Ammassa, Джек Лутс, Майкл Райан Каннингэм, Джейсон Ривера, Джон Хатчинсон
Описание: Пятеро друзей отправляются в путешествие, но по пути встречаются с бандой жестоких байкеров. Пытаясь скрыться от них, они приезжают в заброшенный городок, где их поджидает нечто еще более страшное.
Качество: DVDRip
Формат: AVI
Видео кодек: XviD
Аудио кодек: AC3
Видео:XviD, 23,976 fps , 720x304, 1550 Кбит/с
Аудио#1: АС3, 2 ch, 192 Кбит/с, 48,0 КГц
скриншот   скриншот   скриншот  

Общее
Полное имя : D:\download\Пожиратели.avi
Формат : AVI
Формат/Информация : Audio Video Interleave
Размер файла : 1,10 Гбайт
Продолжительность : 1 ч. 30 м.
Общий поток : 1751 Кбит/сек
Название фильма : RARBG.COM - Eaters.2015.DVDRip.XviD.AC3-RARBG
Программа кодирования : VirtualDubMod 1.5.10.2 (build 2540/release)
Библиотека кодирования : VirtualDubMod build 2540/release
Примечание : RARBG.COM - Eaters.2015.DVDRip.XviD.AC3-RARBG

Видео
Идентификатор : 0
Формат : MPEG-4 Visual
Профиль формата : Simple@L5
Параметр BVOP формата : Нет
Параметр QPel формата : Нет
Параметр GMC формата : Без точки перехода
Параметр матрицы формата : Default (H.263)
Идентификатор кодека : XVID
Идентификатор кодека/Подсказка : XviD
Продолжительность : 1 ч. 30 м.
Битрейт : 1550 Кбит/сек
Ширина : 720 пикселей
Высота : 304 пикселя
Соотношение сторон : 2,35:1
Частота кадров : 23,976 кадра/сек
Цветовое пространство : YUV
Субдискретизация насыщенности : 4:2:0
Битовая глубина : 8 бит
Тип развёртки : Прогрессивная
Метод сжатия : С потерями
Бит/(Пиксели*Кадры) : 0.295
Размер потока : 998 Мбайт (88%)
Библиотека кодирования : Lavc56.58.100

Аудио
Идентификатор : 1
Формат : AC-3
Формат/Информация : Audio Coding 3
Расширение режима : CM (complete main)
Параметр Endianness формата : Big
Идентификатор кодека : 2000
Продолжительность : 1 ч. 30 м.
Вид битрейта : Постоянный
Битрейт : 192 Кбит/сек
Каналы : 2 канала
Расположение каналов : Front: L R
Частота : 48,0 КГц
Битовая глубина : 16 бит
Метод сжатия : С потерями
Размер потока : 124 Мбайт (11%)
Выравнивание : Разделение по промежуткам
Продолжительность промежутка : 42 мс. (1,00 видеокадр)
Время предзагрузки промежутка : 500 мс.

pb.wtf



Скачать Пожиратели через торрент http://pic.kartinco.top/images/11/xj8ho.jpg Скачать фильм Пожиратели через торрент бесплантно в хорошем качестве Описание: Пятеро друзей отправляются в путешествие, но по пути встречаются с бандой жестоких байкеров. Пытаясь скрыться от них, они ... 7.9 10 10
Торрент: Зарегистрирован [2015-10-28 22:36] · скачан: 114 раз
Статус: T временная
Размер: 1.1 GB
Как cкачать? Как скачать Пожиратели через торрент | qTorrent

% Раздел Тема Автор DL S | L
Фильмы с авторской озвучкой [ 11.64 GB ] Зомби: Пожиратели плоти /Zombie: Flesh Eaters / Zombi 2 [1979 BDRip 1080p 4K Remastered] 2xAVO Леонид Ильич Скачать
1 | 0
T Фильмы (мультфильмы) cо спонсором показа (Новинки AVI/MKV) [ 1.37 GB ] Спящие пожиратели / Sleep Eaters [2017 HDRip] MVO ["Синема УС"] bober100 Скачать
1 | 0
Документальные фильмы и телепередачи [ 695 MB ] Ночь пожирателей рекламы / Night of The AdEaters [2008 реклама DVDRip] 220v0lt Скачать
1 | 0
Фильмы 2006-2008 [ 746 MB ] Ночь властелина / Night of the Flesh Eaters [2008 DVDRip двухголосый] jump88 Скачать
1 | 0
Фильмы 2010 [ 1.37 GB ] Пожиратели / Eaters [2010 HDRip] shuller Скачать
1 | 0
Фильмы 2010 [ 747 MB ] Пожиратели / Eaters [2010 DVDRip] coc900 Скачать
1 | 0
Фильмы 2010 [ 1.37 GB ] Пожиратели / Eaters [2010 DVDRip] Чупачупсик Скачать
1 | 0


Последний раз редактировалось: schultz (2015-10-29 06:01), всего редактировалось 2 раз(а)

28-11-2019 20:33  

Отключить всю рекламу на сайте

29-10-2015 05:39 Пожиратели Скачать торрент  

schultz писал(а):

Видео: 1550 Кбит/с, 720x304
Аудио#1: АС3, 2 ch, 192 Кбит/с

ссылка ознакомтесь внимательно.

Цитата:

12.12 Заполнение тех. данных должно выглядеть так: (Редакция от 13.09.15)
Код:
Видео:

Видеокодек, размер кадра (в пикселях), битрейт видео (kbps), частота смены кадра (fps), Бит/(Пиксели*Кадры) по желанию

Код:
Аудио:

Аудиокодек, Битрейт аудио (kbps), количество каналов (ch), частота дискретизации (KHz)Пример:

Код:
Качество: WEB-DLRip
Формат: AVI
Видео: XviD , 720x400, 25 fps, 1469 kbps
Аудио: AC3, 384 kbps, 5.1 ch, 48 kHz

pb.wtf





Последний раз редактировалось: Ворон (2015-10-29 06:10), всего редактировалось 2 раз(а)
    Дорогой пользователь! Огромная просьба, поблагодарите релизера, оцените раздачу и оставьте свои комментарий, если Вы скачали Пожиратели через торрент бесплатно! Внесите свою лепту в развитие PiratBit!
    Комментировать посты могут только пользователи прошедшие не сложную регистрацию
    Показать сообщения:    

    Пожиратели через торрент
    Скачать бесплатно Пожиратели
    Пожиратели скачать торрент
    Пожиратели смотреть онлайн
    Cкачать фильм Пожиратели бесплатно
    Пожиратели скачать торрент в хорошем качестве
    Пожиратели смотреть онлайн бесплатно в хорошем качестве


    Вы не можете начинать темы
    Вы не можете отвечать на сообщения
    Вы не можете редактировать свои сообщения
    Вы не можете удалять свои сообщения
    Вы не можете голосовать в опросах
    Вы не можете прикреплять файлы к сообщениям
    Вы можете скачивать файлы