Ссылка на приватное зеркало всего за 1$. Внимание количество ограничено!!!

OK

1+1

iTunes

мы

OK

1

WEB-DLRip

Джокер

Пифагор

Ведьмак / The Witcher сериал

iTunes

ПШазам

ОК

Оно 2

iTunes

30
pack

Вам бонус

ВАЖНО

!!Акция!!

Alien_RageХит недели

RePack

Resident Evil 21

ИГРА 18+

pack

RePack

jed

RePack

fifa19

RePack

Assassins Creed: Odyssey

RePack

NEED FOR SPEED™ PAYBACK

4 сезон

9 сезон

Бесстыжие 9 сезон

Все сериалы

все сериалы на PB.wtf

RePack

FAR CRY 5
  

Простушка / The DUFF (Эри Сандел / Ari Sandel) [2015, комедия, мелодрама, BDRip-AVC от potroks] Dub [iTunes] pb.wtf

Простушка через торрент pb.wtf

Размер: 1.46 GB | Добавлен: 4 года 2 мес. назад | Торрент скачан:504 раза
Скачать  

29-10-2015 07:06 Простушка Скачать торрент  

Простушка / The DUFF
«Или вы знаете её, или у вас есть такая... или ты сама»
Год выпуска: 2015
Страна: США / CBS Films, Vast Entertainment, Wonderland Sound and Vision
Жанр: комедия, мелодрама
Продолжительность: 01:41:15
Перевод: Дубляж [iTunes]
Субтитры: английские (Full), английские (SDH)
Навигация по главам: есть
Режиссер: Эри Сандел / Ari Sandel
В ролях:

Мэй Уитман (Bianca), Робби Амелл (Wesley), Белла Торн (Madison), Бьянка А. Сантос (Casey), Скайлер Сэмюэлс (Jess), Романи Малко (Principal Buchanan), Ник Эверсман (Toby), Крис Уайлд (Mr. Filmore), Кен Жонг (Mr. Arthur), Эллисон Дженни (Dottie), Ребекка Вейл (Caitlyn), Сет Меривезер (A.J.)
Описание: Качок, ботан, рокер, стерва - в каждой компании есть персонажи с такими кличками. Бьянка Пайпер не подозревает, как ее зовут за ее спиной. Подружки списывают у нее физику и берут ее с собой на тусовки, чтобы круче смотреться на ее фоне. Школьный плейбой Уэсли Раш открывает ей глаза на правду... Как Бьянке избавиться от позорного статуса, стать неотразимой и завоевать сердце первого красавца?

Качество: BDRip-AVC
Формат: MKV
Видео кодек: AVC
Аудио кодек: AC3
Видео: 960x400 (2.40:1), 1681 kbps, 23,976 fps, 0,183 bit/pixel
Аудио: AC3 / 5.1 / 48 kHz / 384 kbps / 16 bit

Релиз группы:
Автор рипа: potroks

Код:

General
Unique ID                                : 249084921038538189744398989365205220978 (0xBB6402C4990C8CD3B8BAFDF196F73E72)
Complete name                            : N:\Комедия\Prostushka.2015.RUS.BDRip.x264.-HELLYWOOD.mkv
Format                                   : Matroska
Format version                           : Version 4 / Version 2
File size                                : 1.46 GiB
Duration                                 : 1h 41mn
Overall bit rate                         : 2 066 Kbps
Movie name                               : The Duff (2015) - HELLYWOOD
Encoded date                             : UTC 2010-02-22 21:41:31
Writing application                      : mkvmerge v5.8.0 ('No Sleep / Pillow') built on Sep 30 2012 10:57:14
Writing library                          : libebml v1.3.0 + libmatroska v1.4.0

Video
ID                                       : 1
Format                                   : AVC
Format/Info                              : Advanced Video Codec
Format profile                           : High@L4.1
Format settings, CABAC                   : Yes
Format settings, ReFrames                : 12 frames
Codec ID                                 : V_MPEG4/ISO/AVC
Duration                                 : 1h 41mn
Bit rate                                 : 1 681 Kbps
Width                                    : 960 pixels
Height                                   : 400 pixels
Display aspect ratio                     : 2.40:1
Frame rate                               : 23.976 fps
Color space                              : YUV
Chroma subsampling                       : 4:2:0
Bit depth                                : 8 bits
Scan type                                : Progressive
Bits/(Pixel*Frame)                       : 0.183
Stream size                              : 1.16 GiB (79%)
Title                                    : potroks
Writing library                          : x264 core 148 r2597M e86f3a1
Encoding settings                        : cabac=1 / ref=12 / deblock=1:-2:-2 / analyse=0x3:0x133 / me=umh / subme=11 / psy=1 / psy_rd=1.00:0.10 / mixed_ref=1 / me_range=48 / chroma_me=1 / trellis=2 / 8x8dct=1 / cqm=0 / deadzone=21,11 / fast_pskip=0 / chroma_qp_offset=-3 / threads=10 / lookahead_threads=2 / sliced_threads=0 / nr=0 / decimate=1 / interlaced=0 / bluray_compat=0 / constrained_intra=0 / bframes=13 / b_pyramid=2 / b_adapt=2 / b_bias=0 / direct=3 / weightb=1 / open_gop=0 / weightp=2 / keyint=250 / keyint_min=23 / scenecut=40 / intra_refresh=0 / rc=2pass / mbtree=0 / bitrate=1681 / ratetol=1.0 / qcomp=0.70 / qpmin=0 / qpmax=69 / qpstep=4 / cplxblur=20.0 / qblur=0.5 / ip_ratio=1.40 / pb_ratio=1.30 / aq=1:0.80
Language                                 : English
Default                                  : Yes
Forced                                   : No

Audio
ID                                       : 2
Format                                   : AC-3
Format/Info                              : Audio Coding 3
Mode extension                           : CM (complete main)
Codec ID                                 : A_AC3
Duration                                 : 1h 41mn
Bit rate mode                            : Constant
Bit rate                                 : 384 Kbps
Channel(s)                               : 6 channels
Channel positions                        : Front: L C R, Side: L R, LFE
Sampling rate                            : 48.0 KHz
Bit depth                                : 16 bits
Compression mode                         : Lossy
Stream size                              : 278 MiB (19%)
Title                                    : Dub | DD 5.1 @ 384 kbps - iTunes
Language                                 : Russian
Default                                  : Yes
Forced                                   : No

Text #1
ID                                       : 3
Format                                   : UTF-8
Codec ID                                 : S_TEXT/UTF8
Codec ID/Info                            : UTF-8 Plain Text
Title                                    : Full
Language                                 : English
Default                                  : No
Forced                                   : No

Text #2
ID                                       : 4
Format                                   : UTF-8
Codec ID                                 : S_TEXT/UTF8
Codec ID/Info                            : UTF-8 Plain Text
Title                                    : SDH
Language                                 : English
Default                                  : No
Forced                                   : No

Menu
00:00:00.000                             : :00:00:00.000
00:09:37.202                             : :00:09:37.202
00:16:43.419                             : :00:16:43.419
00:24:48.028                             : :00:24:48.028
00:29:24.805                             : :00:29:24.805
00:40:37.310                             : :00:40:37.310
00:47:31.348                             : :00:47:31.348
00:55:25.697                             : :00:55:25.697
00:59:11.465                             : :00:59:11.465
01:04:35.330                             : :01:04:35.330
01:09:38.383                             : :01:09:38.383
01:17:59.800                             : :01:17:59.800
01:21:23.337                             : :01:21:23.337
01:25:32.377                             : :01:25:32.377
01:33:08.541                             : :01:33:08.541
01:35:31.809                             : :01:35:31.809

pb.wtf



Скачать Простушка через торрент http://i74.fastpic.ru/big/2015/1029/a6/c6be96bfcc0094d0a4fd79db2ab2f4a6.png Скачать фильм Простушка через торрент бесплантно в хорошем качестве Описание: Качок, ботан, рокер, стерва - в каждой компании есть персонажи с такими кличками. Бьянка Пайпер не подозревает, как ее зовут за ... 8.8 10 16
Info! Золотая раздача, скачанное не засчитывается.
Торрент: Зарегистрирован [2015-10-29 07:06] · скачан: 504 раз
Статус: √ проверено
Размер: 1.46 GB
Как cкачать? Как скачать Простушка через торрент | qTorrent

% Раздел Тема Автор DL S | L
Фильмы 2015 [DVDrip, WEB-DLRip, HDrip] [ 1.37 GB ] Простушка / The DUFF [2015 HDRip [лицензия] Zclasss Скачать
1 | 0
Фильмы 2015 [DVDrip, WEB-DLRip, HDrip] [ 2.04 GB ] Простушка / The DUFF [2015 HDRip ""] coc900 Скачать
1 | 0
Фильмы (WEB-DL 720p, 1080p) [ 3.41 GB ] Простушка / The DUFF [2015 WEB-DL 1080p ] Ворон Скачать
1 | 0

28-11-2019 20:33  

Отключить всю рекламу на сайте

    Дорогой пользователь! Огромная просьба, поблагодарите релизера, оцените раздачу и оставьте свои комментарий, если Вы скачали Простушка через торрент бесплатно! Внесите свою лепту в развитие PiratBit!
    Комментировать посты могут только пользователи прошедшие не сложную регистрацию
    Показать сообщения:    

    Простушка через торрент
    Скачать бесплатно Простушка
    Простушка скачать торрент
    Простушка смотреть онлайн
    Cкачать фильм Простушка бесплатно
    Простушка скачать торрент в хорошем качестве
    Простушка смотреть онлайн бесплатно в хорошем качестве


    Вы не можете начинать темы
    Вы не можете отвечать на сообщения
    Вы не можете редактировать свои сообщения
    Вы не можете удалять свои сообщения
    Вы не можете голосовать в опросах
    Вы не можете прикреплять файлы к сообщениям
    Вы можете скачивать файлы