2 сезон

iTunes

1 сезон

1

iTunes

iTunes

iTunes

1 сезон

RePack

30

ИГРА 18+

pack

ВАЖНО

!!Акция!!

Alien_RageХит недели

RePack

MK11
pack

Забери бонус

RePack

jed

!!Акция!!

Alien_Rage

RePack

fifa19

RePack

Assassins Creed: Odyssey

RePack

NEED FOR SPEED™ PAYBACK

4 сезон

9 сезон

Бесстыжие 9 сезон

Все сериалы

все сериалы на PB.wtf

RePack

FAR CRY 5
  

Хранитель Луны / Mune, le gardien de la lune (Александр Эбоян / Alexandre Heboyan, Бенуа Филиппон / Benoît Philippon) [2014, мультфильм, BDRip-AVC от potroks] DUB Лицензия pb.wtf

Хранитель Луны через торрент pb.wtf

Размер: 1.46 GB | Добавлен: 5 лет назад | Торрент скачан:165 раз
Скачать  

29-10-2015 14:51 Хранитель Луны Скачать торрент  

Хранитель Луны / Mune, le gardien de la lune
«Он не спасет мир. Он спасет пять миров!»
Год выпуска: 2014
Страна: Франция / Orange Studio, Kinology, Onyx Films
Жанр: мультфильм
Продолжительность: 01:21:27
Перевод: Дубляж [BD RUS]
Навигация по главам: есть
Режиссер: Александр Эбоян / Alexandre Heboyan, Бенуа Филиппон / Benoît Philippon
В ролях:

Омар Си (Sohone, озвучка), Изиа Ижлен (Glim, озвучка), Майкл Грегорио (Mune, озвучка), Шафик Ахмад, Бенуа Аллемане (Yule, озвучка), Шеннон Арчи (Groupie, озвучка), Федор Аткин (Leeyoon, озвучка), Джошуа Дж. Баллард (Mune, озвучка), Дэмиен Буассо (Mune's father, озвучка), Эммануэль Кюртиль (Zucchini, озвучка), Софи де Фюрст, Тревор Дивэлл (Sohone / Zucchini, озвучка)
Описание: На диковинной планете, где смена дня и ночи осуществляется вручную, юного фавна Мьюна неожиданно избирают хранителем Луны. Но к своему ужасу, он почти сразу теряет ее! Воспользовавшись этим, царь подземного мира Некрос крадет и гасит Солнце. Теперь, чтобы спасти планету, Мьюн вместе с отважной девочкой из воска Глим и заносчивым Сохоном, хранителем Солнца, должны отправиться в удивительное и опасное путешествие.

Качество: BDRip-AVC
Формат: MKV
Видео кодек: AVC
Аудио кодек: AC3
Видео: 1036x432 (2.40:1), 2119 kbps, 25 fps, 0,189 bit/pixel
Аудио: AC3 / 5.1 / 48 kHz / 448 kbps / 16 bit

Релиз группы:
Автор рипа: potroks

Код:

General
Unique ID                                : 193983260144850300881628453236648576111 (0x91EFD12321229783B68ACAA99D06046F)
Complete name                            : N:\Мульты\Hranitel'.Luny.2015.RUS.BDRip.x264.-HELLYWOOD.mkv
Format                                   : Matroska
Format version                           : Version 4 / Version 2
File size                                : 1.46 GiB
Duration                                 : 1h 21mn
Overall bit rate                         : 2 568 Kbps
Movie name                               : Mune, le gardien de la lune (2014) - HELLYWOOD
Encoded date                             : UTC 2010-02-22 21:41:31
Writing application                      : mkvmerge v5.8.0 ('No Sleep / Pillow') built on Sep 30 2012 10:57:14
Writing library                          : libebml v1.3.0 + libmatroska v1.4.0

Video
ID                                       : 1
Format                                   : AVC
Format/Info                              : Advanced Video Codec
Format profile                           : High@L4.1
Format settings, CABAC                   : Yes
Format settings, ReFrames                : 11 frames
Codec ID                                 : V_MPEG4/ISO/AVC
Duration                                 : 1h 21mn
Bit rate                                 : 2 119 Kbps
Width                                    : 1 036 pixels
Height                                   : 432 pixels
Display aspect ratio                     : 2.40:1
Original display aspect ratio            : 2.40:1
Frame rate                               : 25.000 fps
Color space                              : YUV
Chroma subsampling                       : 4:2:0
Bit depth                                : 8 bits
Scan type                                : MBAFF
Bits/(Pixel*Frame)                       : 0.189
Stream size                              : 1.18 GiB (81%)
Title                                    : potroks
Writing library                          : x264 core 148 r2597M e86f3a1
Encoding settings                        : cabac=1 / ref=11 / deblock=1:-1:-1 / analyse=0x3:0x133 / me=umh / subme=11 / psy=1 / psy_rd=1.00:0.10 / mixed_ref=1 / me_range=48 / chroma_me=1 / trellis=2 / 8x8dct=1 / cqm=0 / deadzone=21,11 / fast_pskip=0 / chroma_qp_offset=-3 / threads=10 / lookahead_threads=2 / sliced_threads=0 / nr=0 / decimate=1 / interlaced=tff / bluray_compat=0 / constrained_intra=0 / bframes=12 / b_pyramid=2 / b_adapt=2 / b_bias=0 / direct=3 / weightb=1 / open_gop=0 / weightp=0 / keyint=250 / keyint_min=23 / scenecut=40 / intra_refresh=0 / rc=2pass / mbtree=0 / bitrate=2119 / ratetol=1.0 / qcomp=0.70 / qpmin=0 / qpmax=69 / qpstep=4 / cplxblur=20.0 / qblur=0.5 / ip_ratio=1.40 / pb_ratio=1.30 / aq=1:0.80
Language                                 : English
Default                                  : Yes
Forced                                   : No
Color primaries                          : BT.709-5, BT.1361, IEC 61966-2-4, SMPTE RP177
Transfer characteristics                 : BT.709-5, BT.1361
Matrix coefficients                      : BT.709-5, BT.1361, IEC 61966-2-4 709, SMPTE RP177

Audio
ID                                       : 2
Format                                   : AC-3
Format/Info                              : Audio Coding 3
Mode extension                           : CM (complete main)
Codec ID                                 : A_AC3
Duration                                 : 1h 21mn
Bit rate mode                            : Constant
Bit rate                                 : 448 Kbps
Channel(s)                               : 6 channels
Channel positions                        : Front: L C R, Side: L R, LFE
Sampling rate                            : 48.0 KHz
Bit depth                                : 16 bits
Compression mode                         : Lossy
Stream size                              : 261 MiB (17%)
Title                                    : Dub | DD 5.1 @ 448 kbps - Blu-Ray RUS
Language                                 : Russian
Default                                  : Yes
Forced                                   : No

Menu
00:00:00.000                             : :(01)00:00:00:000
00:05:54.160                             : :(02)00:05:54:160
00:13:02.640                             : :(03)00:13:02:640
00:17:54.560                             : :(04)00:17:54:560
00:24:42.000                             : :(05)00:24:42:000
00:30:02.960                             : :(06)00:30:02:960
00:34:33.560                             : :(07)00:34:33:560
00:42:25.960                             : :(08)00:42:25:960
00:47:45.000                             : :(09)00:47:45:000
00:53:42.760                             : :(10)00:53:42:760
01:00:16.640                             : :(11)01:00:16:640
01:09:48.000                             : :(12)01:09:48:000

pb.wtf



Скачать Хранитель Луны через торрент http://i76.fastpic.ru/big/2016/0219/9c/7f9a536b7b40a345d3c7516f8e50c29c.png Скачать фильм Хранитель Луны через торрент бесплантно в хорошем качестве Описание: На диковинной планете, где смена дня и ночи осуществляется вручную, юного фавна Мьюна неожиданно избирают хранителем Луны. Но к ... 7.8 10 4
Торрент: Зарегистрирован [2015-10-29 14:51] · скачан: 165 раз
Статус: √ проверено
Размер: 1.46 GB
Как cкачать? Как скачать Хранитель Луны через торрент | qTorrent

% Раздел Тема Автор DL S | L
Иностранные мультфильмы [ 743 MB ] Хранитель Луны / Mune le gardien de la lune [2014 мультфильм BDRip-AVC от sokol_ok] DUB sokol_ok Скачать
2 | 0
Иностранные мультфильмы [ 1.45 GB ] Хранитель Луны / Mune le gardien de la lune [2014 мультфильм BDRip-AVC от sokol_ok] DUB sokol_ok Скачать
1 | 0
Зарубежные Мультфильмы (BDRip 1080p, 720p, Blu-ray, BD-Remux) [ 4.07 GB ] Хранитель Луны / Mune le gardien de la lune [2014 мультфильм BDRip 1080p] DUB Ворон Скачать
2 | 0

28-11-2019 20:33  

Отключить всю рекламу на сайте

    Дорогой пользователь! Огромная просьба, поблагодарите релизера, оцените раздачу и оставьте свои комментарий, если Вы скачали Хранитель Луны через торрент бесплатно! Внесите свою лепту в развитие PiratBit!
    Комментировать посты могут только пользователи прошедшие не сложную регистрацию
    Показать сообщения:    

    Хранитель Луны через торрент
    Скачать бесплатно Хранитель Луны
    Хранитель Луны скачать торрент
    Хранитель Луны смотреть онлайн
    Cкачать фильм Хранитель Луны бесплатно
    Хранитель Луны скачать торрент в хорошем качестве
    Хранитель Луны смотреть онлайн бесплатно в хорошем качестве


    Вы не можете начинать темы
    Вы не можете отвечать на сообщения
    Вы не можете редактировать свои сообщения
    Вы не можете удалять свои сообщения
    Вы не можете голосовать в опросах
    Вы не можете прикреплять файлы к сообщениям
    Вы можете скачивать файлы