Ссылка на приватное зеркало нашего сайта всего за 1$. Внимание количество ограничено!!!

2 сезон

iTunes

1 сезон

1

iTunes

iTunes

iTunes

1 сезон

RePack

30

ИГРА 18+

pack

ВАЖНО

!!Акция!!

Alien_RageХит недели

RePack

MK11
pack

Забери бонус

RePack

jed

!!Акция!!

Alien_Rage

RePack

fifa19

RePack

Assassins Creed: Odyssey

RePack

NEED FOR SPEED™ PAYBACK

4 сезон

9 сезон

Бесстыжие 9 сезон

Все сериалы

все сериалы на PB.wtf

RePack

FAR CRY 5
  

Безумцы / The Crazies (Брек Эйснер) [2010, ужасы, триллер, детектив, BDRip 1080p, Дубляж - [BD CEE] pb.wtf

Безумцы через торрент pb.wtf

Размер: 8.37 GB | Добавлен: 4 года 11 мес. назад | Торрент скачан:154 раза
Скачать  

30-10-2015 12:20 Безумцы Скачать торрент  


Безумцы / The Crazies
««Fear Thy Neighbor»»

ИНФОРМАЦИЯ:
Год выпуска:2010
Страна: США, ОАЭ
Жанр: ужасы, триллер, детектив
Продолжительность: 01:40:44
Перевод: Дубляж - [BD CEE]
Субтитры: русские (Субтитры), английские (Субтитры),
Режиссер: Брек Эйснер

В Ролях:


Тимоти Олифант (David), Рада Митчелл (Judy), Джо Андерсон (Russell), Даниэль Панабэйкер (Becca), Кристи Линн Смит (Deardra Farnum), Бретт Рикаби (Bill Farnum), Престон Бэйли (Nicholas), Джон Эйлуорд (Mayor Hobbs), Джо Риган (Pvt. Billy Babcock), Гленн Моршауэр (Intelligence Officer), Ларри Седар (Ben Sandborn), Грегори Спорледер (Travis Quinn)

Описание:
В окрестностях небольшого городка падает самолёт, на борту которого чрезвычайно опасный вирус. Зараза попадает в водную систему города, люди один за другим «заболевают» и начинают яростно набрасываться на всех подряд. Военные оперативно запирают город на карантин, периодически отстреливая зараженных.

  • Мировая премьера:23 февраля 2010

    ТЕХ.ДАННЫЕ:
    Качество: BDRip 1080p
    Формат: MKV
    Видео: AVC, 1920x800 (2.40:1), 8679 kbps, 23,976 fps, 0,236 bpp
    Аудио №1: русский / DTS / 5.1 / 48 kHz / 1510 kbps / 24 bit ||
    Аудио №2: английский / DTS / 5.1 / 48 kHz / 1510 kbps / 16 bit
    Аудио №3: английский / AC3 / 2.0 / 48 kHz / 192 kbps / 16 bit
    Навигация по главам: есть


    General
    Unique ID : 178763698504642811937963362203479328650 (0x867CA2D05E5332D48B8ECAB0DC50478A)
    Complete name : D:\Торенты\Bezumtzy.2010.x264.BDRip.1080p.mkv
    Format : Matroska
    Format version : Version 1
    File size : 8.37 GiB
    Duration : 1h 40mn
    Overall bit rate : 11.9 Mbps
    Encoded date : UTC 2010-06-29 12:33:10
    Writing application : mkvmerge v2.1.0 ('Another Place To Fall') built on Aug 19 2007 13:40:07
    Writing library : libebml v0.7.7 + libmatroska v0.8.1

    Video
    ID : 1
    Format : AVC
    Format/Info : Advanced Video Codec
    Format profile : High@L4.0
    Format settings, CABAC : Yes
    Format settings, ReFrames : 5 frames
    Codec ID : V_MPEG4/ISO/AVC
    Duration : 1h 40mn
    Bit rate : 8 679 Kbps
    Width : 1 920 pixels
    Height : 800 pixels
    Display aspect ratio : 2.40:1
    Frame rate : 23.976 fps
    Color space : YUV
    Chroma subsampling : 4:2:0
    Bit depth : 8 bits
    Scan type : Progressive
    Bits/(Pixel*Frame) : 0.236
    Stream size : 5.94 GiB (71%)
    Writing library : x264 core 98 r1649 c54c47d
    Encoding settings : cabac=1 / ref=5 / deblock=1:0:0 / analyse=0x3:0x113 / me=umh / subme=7 / psy=1 / psy_rd=1.00:0.00 / mixed_ref=1 / me_range=16 / chroma_me=1 / trellis=1 / 8x8dct=1 / cqm=0 / deadzone=21,11 / fast_pskip=0 / chroma_qp_offset=-2 / threads=12 / sliced_threads=0 / nr=0 / decimate=1 / interlaced=0 / constrained_intra=0 / bframes=3 / b_pyramid=2 / b_adapt=1 / b_bias=0 / direct=1 / weightb=1 / weightp=2 / keyint=250 / keyint_min=25 / scenecut=40 / intra_refresh=0 / rc_lookahead=40 / rc=2pass / mbtree=1 / bitrate=8679 / ratetol=1.0 / qcomp=0.60 / qpmin=10 / qpmax=51 / qpstep=4 / cplxblur=20.0 / qblur=0.5 / ip_ratio=1.40 / aq=1:1.00
    Language : English
    Default : Yes
    Forced : No

    Audio #1
    ID : 2
    Format : DTS
    Format/Info : Digital Theater Systems
    Codec ID : A_DTS
    Duration : 1h 40mn
    Bit rate mode : Constant
    Bit rate : 1 510 Kbps
    Channel(s) : 6 channels
    Channel positions : Front: L C R, Side: L R, LFE
    Sampling rate : 48.0 KHz
    Bit depth : 24 bits
    Compression mode : Lossy
    Stream size : 1.06 GiB (13%)
    Title : Дубляж DTS 1510 kpbs
    Language : Russian
    Default : Yes
    Forced : No

    Audio #2
    ID : 3
    Format : DTS
    Format/Info : Digital Theater Systems
    Codec ID : A_DTS
    Duration : 1h 40mn
    Bit rate mode : Constant
    Bit rate : 1 510 Kbps
    Channel(s) : 6 channels
    Channel positions : Front: L C R, Side: L R, LFE
    Sampling rate : 48.0 KHz
    Bit depth : 16 bits
    Compression mode : Lossy
    Stream size : 1.06 GiB (13%)
    Title : Оригинал DTS 1510 kpbs
    Language : English
    Default : No
    Forced : No

    Audio #3
    ID : 4
    Format : AC-3
    Format/Info : Audio Coding 3
    Mode extension : CM (complete main)
    Codec ID : A_AC3
    Duration : 1h 40mn
    Bit rate mode : Constant
    Bit rate : 192 Kbps
    Channel(s) : 2 channels
    Channel positions : Front: L R
    Sampling rate : 48.0 KHz
    Bit depth : 16 bits
    Compression mode : Lossy
    Stream size : 138 MiB (2%)
    Title : Коментарии АС3/2.0 192 kpbs
    Language : English
    Default : No
    Forced : No

    Text #1
    ID : 5
    Format : UTF-8
    Codec ID : S_TEXT/UTF8
    Codec ID/Info : UTF-8 Plain Text
    Title : Субтитры
    Language : Russian
    Default : Yes
    Forced : No

    Text #2
    ID : 6
    Format : UTF-8
    Codec ID : S_TEXT/UTF8
    Codec ID/Info : UTF-8 Plain Text
    Title : Субтитры
    Language : English
    Default : No
    Forced : No

    Menu
    00:00:00.000 : en:Death on the Diamond/Main Title
    00:05:01.175 : en:"He's Not Right"
    00:11:24.392 : en:Burning Down the House
    00:17:18.287 : en:Codename: Trixie
    00:28:02.472 : en:Containment Protocol
    00:35:28.543 : en:Prisoners of Madness
    00:42:34.551 : en:Hell Town
    00:53:03.680 : en:No Place Like Home
    01:00:07.812 : en:Drive-Thru Ambush
    01:13:30.322 : en:"So Let It Mean Something"
    01:16:27.165 : en:Last Exit For the Lost
    01:33:04.996 : en:End Credits
    Скриншоты:


    © Оформление by Ворон
    pb.wtf



  • Скачать Безумцы через торрент http://pic.kartinco.top/images/6/ordi9.jpg Скачать фильм Безумцы через торрент бесплантно в хорошем качестве Описание: В окрестностях небольшого городка падает самолёт, на борту которого чрезвычайно опасный вирус. Зараза попадает в водную систему ... 10 10 10
    Info! Золотая раздача, скачанное не засчитывается.
    Торрент: Зарегистрирован [2015-10-30 12:20] · скачан: 154 раз
    Статус: T временная
    Размер: 8.37 GB
    Как cкачать? Как скачать Безумцы через торрент | qTorrent

    % Раздел Тема Автор DL S | L
    Фильмы 2010 [ 1.37 GB ] Безумцы / The Crazies [2010 DVDRip] / лицензия DEVI Скачать
    1 | 0
    Фильмы (Blu-ray, BD-Remux, HDDVD) [ 28.18 GB ] Безумцы / The Crazies [2010 BDRemux 1080p] DUB + AVO [Юрий Сербин] + VO [R1shpil] sheker187 Скачать
    1 | 0
    Фильмы [HD 720p, 1080p] (Хороший звук DUB, MVO) [ 2.2 GB ] Безумцы / The Crazies [2010 BDRip ] Sудья Скачать
    1 | 0
    Фильмы 2010 [ 1.46 GB ] Безумцы / The Crazies [2010 BDRip] VintMosina Скачать
    1 | 0
    Фильмы [HD 720p, 1080p] (Хороший звук DUB, MVO) [ 4.36 GB ] Безумцы / The Crazies [2010 BDRip] Flint3 Скачать
    1 | 0
    Фильмы 2010 [ 1.77 GB ] Безумцы / The Crazies [2010 BDRip-AVC] DUB|Original|Sub -=BIGBOSS=- Скачать
    1 | 0
    Фильмы 2010 [ 1.46 GB ] Безумцы / The Crazies [2010 ... HDRip] Venxxx Скачать
    1 | 0

    28-11-2019 20:33  

    Отключить всю рекламу на сайте

    30-10-2015 14:49 Безумцы Скачать торрент  

    Отличный фильм, жаль сейчас такого не снимают. 9/10.pb.wtf



    31-10-2015 08:10 Безумцы Скачать торрент  

    да ладно? чо реально крутое кено?pb.wtf



    02-11-2015 08:49 Безумцы Скачать торрент  

    надо глянуть, кадры многообещающие pb.wtf



      Дорогой пользователь! Огромная просьба, поблагодарите релизера, оцените раздачу и оставьте свои комментарий, если Вы скачали Безумцы через торрент бесплатно! Внесите свою лепту в развитие PiratBit!
      Комментировать посты могут только пользователи прошедшие не сложную регистрацию
      Показать сообщения:    

      Безумцы через торрент
      Скачать бесплатно Безумцы
      Безумцы скачать торрент
      Безумцы смотреть онлайн
      Cкачать фильм Безумцы бесплатно
      Безумцы скачать торрент в хорошем качестве
      Безумцы смотреть онлайн бесплатно в хорошем качестве


      Вы не можете начинать темы
      Вы не можете отвечать на сообщения
      Вы не можете редактировать свои сообщения
      Вы не можете удалять свои сообщения
      Вы не можете голосовать в опросах
      Вы не можете прикреплять файлы к сообщениям
      Вы можете скачивать файлы