2 сезон

iTunes

MVO

1

2 сезон

iTunes

iTunes

1 сезон

RePack

30

Новинка

ВАЖНО

ИГРА 18+

pack

RePack

MK11
pack

Легкие деньги

RePack

jed

RePack

fifa19

RePack

RDR2

RePack

NEED FOR SPEED™ PAYBACK

4 сезон

9 сезон

Бесстыжие 9 сезон

Все сериалы

все сериалы на PB.wtf

RePack

FAR CRY 5

Anonymous, добрый вечер, мы не успеваем собрать деньги на оплату серверов за декабрь и январь, помогите нам пожалуйста в это трудное время. В качестве благодарности мы отключим Вам всю рекламу на сайте (укажите свой ник в строку Ваше имя)!

×
  
Magnet ссылка

Раскачай Касбу / Rock the Casbah (Лайла Марракчи) [2013, драма, HDRip, Профессиональный многоголосый [официальный звук] pb.wtf

Раскачай Касбу через торрент pb.wtf

Размер: 1.46 GB | Добавлен: 5 лет 2 мес. назад | Торрент скачан:23 раза
Скачать  

30-10-2015 12:36 Раскачай Касбу Скачать торрент  


Раскачай Касбу / Rock the Casbah


ИНФОРМАЦИЯ:
Год выпуска:2013
Страна: Франция, Марокко
Жанр: драма

Продолжительность: 01:39:29
Перевод: Профессиональный многоголосый [официальный звук]
Режиссер: Лайла Марракчи

В Ролях:


Морьяна Алауи (Sofia), Надин Лабаки (Miriam), Лубна Азабаль (Kenza), Хиам Аббасс (Aicha), Омар Шариф (Moulay Hassan), Рауйя (Yacout), Адель Беншериф (Zakaria), Assia Bentria (Lalla Zaza), Hassan El Ganouni (Ahmed), Джад Мхиди Сенхаджи (Noah), Hadi Alaoui (Mamoun), Fatim-Zahra Lahouitar (Siham)

Описание:
После смерти видного марокканского магната Мулай Хассана, его родственники в течение трех дней проводят на его вилле в Танжере траурные обряды, как того требуют мусульманские обычаи. Неожиданное появление Софии, младшей дочери умершего, которая несколько лет назад вопреки желанию отца уехала в Штаты в надежде стать актрисой, вносит сумятицу в сердца её сестер, Кензы и Мириам, которым приходится пересмотреть своё отношение к жизни и собственной судьбе.

  • Мировая премьера:23 августа 2013

    ТЕХ.ДАННЫЕ:
    Качество: HDRip
    Формат: AVI
    Видео: XviD, 720x304 (2.35:1), 1897 kbps, 23,976 fps, 0,362 bpp
    Аудио: AC3 / 2.0 / 48 kHz / 192 kbps / 16 bit


    General
    Complete name : D:\Торенты\Raska4aj.Kasby.2013.P.HDRip.avi
    Format : AVI
    Format/Info : Audio Video Interleave
    File size : 1.46 GiB
    Duration : 1h 39mn
    Overall bit rate : 2 099 Kbps
    Writing application : VirtualDubMod 1.5.10.2 (build 2540/release)
    Writing library : VirtualDubMod build 2540/release

    Video
    ID : 0
    Format : MPEG-4 Visual
    Format profile : Advanced Simple@L5
    Format settings, BVOP : 2
    Format settings, QPel : No
    Format settings, GMC : No warppoints
    Format settings, Matrix : Default (MPEG)
    Codec ID : XVID
    Codec ID/Hint : XviD
    Duration : 1h 39mn
    Bit rate : 1 898 Kbps
    Width : 720 pixels
    Height : 304 pixels
    Display aspect ratio : 2.35:1
    Frame rate : 23.976 fps
    Color space : YUV
    Chroma subsampling : 4:2:0
    Bit depth : 8 bits
    Scan type : Progressive
    Compression mode : Lossy
    Bits/(Pixel*Frame) : 0.362
    Stream size : 1.32 GiB (90%)
    Writing library : XviD 1.2.1 (UTC 2008-12-04)

    Audio
    ID : 1
    Format : AC-3
    Format/Info : Audio Coding 3
    Mode extension : CM (complete main)
    Codec ID : 2000
    Duration : 1h 39mn
    Bit rate mode : Constant
    Bit rate : 192 Kbps
    Channel(s) : 2 channels
    Channel positions : Front: L R
    Sampling rate : 48.0 KHz
    Bit depth : 16 bits
    Compression mode : Lossy
    Stream size : 137 MiB (9%)
    Alignment : Split accross interleaves
    Interleave, duration : 42 ms (1.00 video frame)
    Interleave, preload duration : 500 ms
    Скриншоты:


    © Оформление by Ворон
    pb.wtf



  • Скачать Раскачай Касбу через торрент http://pic.kartinco.top/images/6/ordi9.jpg Скачать фильм Раскачай Касбу через торрент бесплантно в хорошем качестве Описание: После смерти видного марокканского магната Мулай Хассана, его родственники в течение трех дней проводят на его вилле в Танжере ... 9.8 10 5
    Торрент: Зарегистрирован [2015-10-30 12:36] · скачан: 23 раз
    Статус: T временная
    Размер: 1.46 GB
    Как cкачать? Как скачать Раскачай Касбу через торрент | UTorrent

    28-11-2019 20:33  

    Отключить всю рекламу на сайте

      Дорогой пользователь! Огромная просьба, поблагодарите релизера, оцените раздачу и оставьте свои комментарий, если Вы скачали Раскачай Касбу через торрент бесплатно! Внесите свою лепту в развитие PiratBit!
      Комментировать посты могут только пользователи прошедшие не сложную регистрацию
      Показать сообщения:    

      Раскачай Касбу через торрент
      Скачать бесплатно Раскачай Касбу
      Раскачай Касбу скачать торрент
      Раскачай Касбу смотреть онлайн
      Cкачать фильм Раскачай Касбу бесплатно
      Раскачай Касбу скачать торрент в хорошем качестве
      Раскачай Касбу смотреть онлайн бесплатно в хорошем качестве


      Вы не можете начинать темы
      Вы не можете отвечать на сообщения
      Вы не можете редактировать свои сообщения
      Вы не можете удалять свои сообщения
      Вы не можете голосовать в опросах
      Вы не можете прикреплять файлы к сообщениям
      Вы можете скачивать файлы